<?xml version="1.0" standalone="no"?>
<!DOCTYPE svg PUBLIC "-//W3C//DTD SVG 1.1//EN" "http://www.w3.org/Graphics/SVG/1.1/DTD/svg11.dtd" >
<svg xmlns="http://www.w3.org/2000/svg">
<metadata>Generated by IcoMoon</metadata>
<defs>
<font id="icomoon" horiz-adv-x="1024">
<font-face units-per-em="1024" ascent="1024" descent="0" />
<missing-glyph horiz-adv-x="1024" />
<glyph unicode="&#x20;" d="" horiz-adv-x="512" />
<glyph unicode="&#xe001;" d="M510.688 1024c-148.669 0-269.563-119.864-269.563-267.25 0-57.491 18.78-110.493 50.156-154.125-67.565-97.787-113.375-229.317-113.375-331.531 0-15.784 1.161-30.994 3.406-45.688 40.167-17.068 161.434-61.906 324.219-61.906 167.597 0 296.38 46.133 334.75 61.469 2.246 14.822 3.469 30.212 3.469 46.125-0.128 102.214-45.871 233.681-113.5 331.531 31.376 43.632 50.25 96.634 50.25 154.125 0 147.386-121.015 267.25-269.813 267.25zM343.281 856.719c0 0 73.634-66.736 141.969-79.313 51.396-9.561 170.826-6.415 202.844-8.469 16.041-1.091 34.436-7.434 48.938-13.594-0.834-122.939-101.866-222.844-226.281-222.844-124.736 0-226.25 100.605-226.25 224.25-0.064 18.864 3.010 36.889 7.438 54.406 8.085 5.069 20.084 12.842 28.875 20.156 13.924 11.55 22.469 25.406 22.469 25.406zM187.656 198.719c14.437-52.871 44.68-97.472 89.531-131.094 58.903-44.209 139.692-67.625 233.5-67.625 93.937 0 174.656 23.416 233.688 67.625 44.787 33.622 75.065 78.096 89.438 131.031-53-19.698-173.451-56.969-328.344-56.969-150.658 0-264.684 36.242-317.813 57.031z" />
<glyph unicode="&#xe002;" d="M363.5 1024c-148.64 0-269.531-119.86-269.531-267.219 0-57.431 18.503-110.634 49.719-154.156-67.364-97.748-112.938-229.329-112.938-331.5 0-15.704 1.089-30.914 3.345-45.656 34.613-14.678 129.094-49.729 258.313-59.345-39.93 61.341-63.188 134.725-63.188 213.5v0.031c0 62.238 14.483 121.073 40.251 173.375-77.879 35.445-132.188 113.311-132.188 203.688 0 18.652 2.522 36.536 6.875 53.906 8.14 5.063 20.687 13.287 29.469 20.594 13.845 11.665 22.438 25.375 22.438 25.375s73.58-66.591 141.969-79.219c51.406-9.55 170.828-6.354 202.813-8.469 4.615-0.32 9.504-1.096 14.375-2.25 21.729 3.654 43.966 5.719 66.656 5.719 3.589 0 7.037-0.073 10.563-0.219-8.012 140.18-125.426 251.844-268.938 251.844zM632.375 742.625c-200.431 0-363.5-161.581-363.5-360.281 0-198.636 163.069-360.156 363.5-360.156 200.559 0 363.689 161.519 363.625 360.156 0 198.7-163.131 360.281-363.625 360.281zM632.375 657.813c153.32 0 278.001-123.559 278.001-275.469 0-151.845-124.681-275.375-278.001-275.375-153.256 0-277.906 123.53-277.906 275.375 0 151.91 124.651 275.469 277.906 275.469zM632.187 569.313c-20.96 0-37.875-16.859-37.875-37.563v-113.656h-112.063c-20.896 0-37.875-16.795-37.875-37.563 0-20.639 16.979-37.5 37.875-37.5h112.063v-108.125c0-20.767 16.915-37.563 37.875-37.563 20.896 0 37.875 16.859 37.875 37.563v108.125h111.969c20.96 0 37.969 16.861 37.969 37.5 0 20.703-17.009 37.563-37.969 37.563h-111.969v113.656c0 20.767-16.979 37.563-37.875 37.563zM39.469 198.688c14.422-52.881 44.632-97.474 89.5-131.125 58.906-44.163 139.727-67.563 233.5-67.563 41.471 0 80.174 4.811 115.813 13.656-68.328 26.728-127.353 71.847-170.875 129.406-125.821 6.73-220.893 37.357-267.938 55.625z" />
<glyph unicode="&#xe003;" d="M358.875 1024c-148.688 0-269.625-119.905-269.625-267.25 0-57.429 18.541-110.636 49.75-154.188-67.405-97.719-113-229.336-113-331.531 0-15.732 1.074-30.946 3.313-45.719 34.662-14.645 129.192-49.687 258.375-59.344-39.906 61.586-63.25 134.93-63.25 213.719 0 62.225 14.602 121.125 40.375 173.438-77.958 35.429-132.281 113.323-132.281 203.688 0 18.61 2.559 36.511 6.844 53.906 8.122 5.052 20.673 13.241 29.563 20.531 13.814 11.703 22.438 25.375 22.438 25.375s73.668-66.619 141.969-79.281c51.481-9.529 170.771-6.391 202.875-8.438 4.605-0.32 9.451-1.099 14.375-2.25 21.68 3.645 43.953 5.688 66.656 5.688 3.517 0 7.012-0.060 10.594-0.188-8.058 140.183-125.46 251.844-268.969 251.844zM636.094 742.281c-201.129 0-364.781-162.099-364.781-361.438s163.588-361.469 364.781-361.469c201.129 0 364.781 162.13 364.781 361.469s-163.652 361.438-364.781 361.438zM636.094 657.156c153.805 0 278.906-123.915 278.906-276.313 0-152.27-125.166-276.281-278.906-276.281s-278.875 124.011-278.875 276.281c0 152.398 125.134 276.313 278.875 276.313zM497.531 420.031c-20.912 0-37.875-16.808-37.875-37.656 0-20.72 16.899-37.531 37.875-37.531h300.188c20.912 0 37.906 16.811 37.906 37.531 0 20.784-16.994 37.656-37.906 37.656h-300.188zM34.75 198.75c14.517-52.888 44.638-97.454 89.469-131.156 58.964-44.191 139.745-67.594 233.563-67.594 41.505 0 80.191 4.798 115.813 13.688-68.365 26.732-127.388 71.882-170.875 129.375-125.858 6.715-220.964 37.333-267.969 55.688z" />
<glyph unicode="&#xe004;" d="M512.031 1024c-262.53 0-476.063-211.559-476.063-471.656 0-90.711 25.902-178.422 75-254.281-55.628-215.030-57.266-232.953-57.906-238.906-1.979-21.061 5.989-34.693 13.031-42.375 9.795-10.626 24.413-16.781 40.094-16.781 8.258 0 16.457 1.673 23.563 4.938 10.691 4.673 150.364 70.401 220.844 103.625 51.854-18.565 106.064-27.969 161.375-27.969 262.464 0 476.031 211.653 476.031 471.75s-213.505 471.656-475.969 471.656zM512.094 944.031c218.356 0 396.031-175.635 396.031-391.625s-177.738-391.719-396.094-391.719c-45.964 0-91.225 7.853-134.5 23.281l-31.094 11.156c0 0-153.58-72.357-202.938-95.531 7.874 32.904 21.506 87.725 45 178.5l8.844 34.063-19.094 29.5c-40.715 62.8-62.219 135.723-62.219 210.75 0 215.99 177.64 391.625 396.063 391.625z" />
<glyph unicode="&#xe005;" d="M673.75 996.594c-81.865-0.339-158.518-31.283-217.75-82.906 205.336-31.227 363.281-206.913 363.281-418.906 0-53.316-10.409-104.199-28.625-151.281 7.988 3.026 16.222 5.556 23.969 9.188 145.787-59.549 158.322-62.346 162.438-63.375 14.585-3.45 24.855 0.916 30.906 5.031 8.533 5.87 14.053 15.548 15.687 26.563 0.726 5.87 0.292 11.797-1.281 17.063-2.118 7.928-35.106 112.506-51.688 165.156 18.034 34.616 29.92 71.837 35.125 110.75 25.054 184.458-103.241 354.875-286.125 379.688-15.441 2.099-30.777 3.094-45.938 3.031zM390.875 878.781c-215.564 0-390.875-173.712-390.875-387.219 0-74.497 21.289-146.509 61.531-208.781-45.628-176.53-46.895-191.223-47.5-196.125-1.568-17.308 5.032-28.456 10.781-34.75 8.046-8.715 20.016-13.781 32.906-13.781 6.778 0 13.563 1.337 19.313 4 8.775 3.812 123.522 57.769 181.375 85.063 42.544-15.25 87.019-23 132.469-23 215.443 0 390.844 173.777 390.844 387.344s-175.401 387.25-390.844 387.25zM390.875 803.125c173.806 0 315.188-139.813 315.188-311.563 0-171.87-141.381-311.656-315.188-311.656-36.614 0-72.624 6.248-106.938 18.594l-29.531 10.594c0 0-112.198-52.919-151.656-71.438 6.718 27.535 16.9 67.79 31.969 126.25l8.344 32.125-18.031 27.844c-32.317 49.988-49.375 107.957-49.375 167.688 0 171.749 141.412 311.563 315.219 311.563z" />
<glyph unicode="&#xe006;" d="M666.094 1024c-148.681 0-269.625-119.882-269.625-267.219 0-57.476 18.794-110.474 50.156-154.125-67.524-97.734-113.406-229.381-113.406-331.531 0-15.809 1.166-31.031 3.406-45.688 40.259-17.025 161.394-61.844 324.156-61.844 167.626 0 296.413 46.078 334.688 61.375 2.304 14.913 3.469 30.282 3.469 46.219 0.064 102.086-45.788 233.672-113.313 331.406 31.298 43.651 50.188 96.648 50.188 154.188 0 147.401-120.973 267.219-269.719 267.219zM315.313 908.844c-125.767 0-228.125-101.508-228.125-226.188 0-48.579 15.817-93.634 42.188-130.5-56.772-82.373-95.375-193.351-95.375-279.5 0-73.093 28.934-133.38 83.594-174.406 49.604-37.25 117.582-56.969 196.5-56.969 33.603 0 65.004 3.774 94.063 10.75-11.393 6.465-22.387 13.198-32.5 20.75-64.837 48.643-99.031 120.184-99.031 206.781 0 102.022 45.572 233.55 112.969 331.156-31.362 43.715-49.969 97.115-49.969 154.719 0 49.219 13.699 95.225 37.125 134.844-19.585 5.44-40.060 8.563-61.438 8.563zM498.75 856.688c0 0 73.583-66.671 141.875-79.344 51.459-9.473 170.778-6.293 202.844-8.469 16.001-1.088 34.44-7.418 48.969-13.563-0.832-122.888-101.923-222.75-226.219-222.75-124.808 0-226.313 100.691-226.313 224.219-0.128 18.881 2.957 36.933 7.438 54.406 8.129 5.056 20.169 12.797 28.938 20.094 13.889 11.713 22.469 25.406 22.469 25.406zM343.063 198.719c14.465-52.931 44.696-97.459 89.563-131.125 58.948-44.163 139.701-67.594 233.531-67.594 93.894 0 174.551 23.431 233.563 67.594 44.739 33.666 75.068 78.131 89.469 131.063-52.867-19.713-173.39-56.938-328.344-56.938-150.601 0-264.722 36.199-317.781 57z" />
<glyph unicode="&#xe007;" d="M513.469 928.344c-119.985 0-217.625-96.782-217.625-215.625 0-46.364 14.986-89.205 40.219-124.406-54.463-78.865-91.25-185.188-91.25-267.531 0-12.72 0.933-25.027 2.75-36.813 27.984-11.838 104.246-40.222 208.5-47.906-32.19 49.531-51 108.764-51 172.313 0 50.206 11.784 97.748 32.5 139.906-62.822 28.659-106.688 91.491-106.688 164.438 0 15.057 2.021 29.554 5.5 43.469 6.49 4.102 16.731 10.623 23.844 16.594 11.163 9.449 18.125 20.531 18.125 20.531s59.373-53.751 114.563-64.031c41.483-7.632 137.852-5.13 163.656-6.844 3.738-0.208 7.69-0.899 11.688-1.781 17.445 3.011 35.423 4.688 53.75 4.688 2.856 0 5.748-0.146 8.5-0.25-6.49 113.132-101.252 203.25-217.031 203.25zM227.156 830.281c-101.606 0-184.219-81.954-184.219-182.625 0-39.199 12.724-75.636 34.063-105.438-45.948-66.404-77-156.002-77-225.625 0-59.032 23.369-107.699 67.5-140.875 40.030-30.113 94.9-45.938 158.656-45.938 27.154 0 52.501 2.997 75.969 8.656-9.19 5.14-18.119 10.592-26.219 16.719-52.386 39.303-80 96.982-80 166.969 0 82.447 36.859 188.624 91.219 267.438-25.337 35.253-40.313 78.356-40.313 124.875 0 39.77 10.966 76.935 29.969 108.969-15.835 4.361-32.44 6.875-49.625 6.875zM730.5 701.406c-161.78 0-293.438-130.424-293.438-290.75 0-160.378 131.658-290.75 293.438-290.75 161.884 0 293.552 130.372 293.5 290.75 0 160.326-131.668 290.75-293.5 290.75zM730.5 632.938c123.775 0 224.406-99.815 224.406-222.344 0-122.581-100.631-222.25-224.406-222.25-123.671 0-224.281 99.669-224.281 222.25 0 122.529 100.662 222.344 224.281 222.344zM730.344 561.531c-16.874 0-30.531-13.595-30.531-30.313v-91.75h-90.438c-16.822 0-30.469-13.646-30.469-30.313 0-16.77 13.699-30.281 30.469-30.281h90.438v-87.281c0-16.718 13.709-30.344 30.531-30.344 16.926 0 30.594 13.626 30.594 30.344v87.281h90.375c16.926 0 30.594 13.563 30.594 30.281 0 16.666-13.668 30.313-30.594 30.313h-90.375v91.75c0 16.718-13.72 30.313-30.594 30.313zM251.969 262.375c11.63-42.729 36.021-78.721 72.156-105.875 47.61-35.668 112.823-54.5 188.469-54.5 33.54 0 64.685 3.846 93.5 11.063-55.138 21.546-102.726 57.939-137.875 104.406-101.554 5.4-178.349 30.057-216.25 44.906z" />
<glyph unicode="&#xe008;" d="M513.438 924.219c-119.898 0-217.469-96.774-217.469-215.531 0-46.322 14.912-89.276 40.094-124.406-54.405-78.861-91.188-185.137-91.188-267.625 0-12.643 0.937-24.936 2.75-36.75 27.876-11.865 104.188-40.155 208.438-47.875-32.176 49.534-50.969 108.768-50.969 172.344 0 50.208 11.754 97.73 32.531 139.906-62.902 28.601-106.75 91.432-106.75 164.438 0 15.026 2.122 29.551 5.594 43.438 6.477 4.093 16.703 10.708 23.75 16.563 11.192 9.43 18.063 20.531 18.063 20.531s59.443-53.824 114.625-64.031c41.451-7.668 137.822-5.103 163.625-6.813 3.731-0.259 7.635-0.963 11.625-1.844 17.513 3.005 35.439 4.656 53.781 4.656 2.902 0 5.63-0.167 8.531-0.219-6.477 113.11-101.227 203.219-217.031 203.219zM227.219 826.188c-101.607 0-184.25-81.908-184.25-182.531 0-39.327 12.695-75.644 34.094-105.438-45.959-66.477-77.063-156.122-77.063-225.656 0-59.12 23.365-107.662 67.563-140.875 40-30.052 94.873-45.906 158.656-45.906 27.099 0 52.549 3.040 75.969 8.688-9.223 5.13-18.105 10.573-26.344 16.688-52.28 39.223-79.938 97.051-79.938 167 0 82.384 36.845 188.566 91.25 267.375-25.285 35.285-40.375 78.325-40.375 124.906 0 39.638 11.036 76.843 30 108.813-15.803 4.404-32.36 6.938-49.563 6.938zM730.531 697.219c-161.815 0-293.438-130.364-293.438-290.625 0-160.313 131.622-290.656 293.438-290.656 161.763 0 293.417 130.344 293.469 290.656 0 160.261-131.705 290.625-293.469 290.625zM730.531 628.844c123.732 0 224.313-99.71 224.313-222.25 0-122.644-100.581-222.281-224.313-222.281s-224.375 99.689-224.375 222.281c0 122.54 100.695 222.25 224.375 222.25zM609.219 437.656c-16.891 0-30.563-13.525-30.563-30.313 0-16.684 13.671-30.313 30.563-30.313h242.188c16.943 0 30.625 13.577 30.625 30.313s-13.682 30.313-30.625 30.313h-242.188zM251.969 258.406c11.71-42.695 36.063-78.704 72.281-105.906 47.513-35.648 112.695-54.5 188.344-54.5 33.524 0 64.764 3.892 93.469 11.094-55.13 21.503-102.693 57.918-137.875 104.344-101.504 5.389-178.239 30.046-216.219 44.969z" />
<glyph unicode="&#xe009;" d="M754.469 928.563c-120.428 0-218.313-97.019-218.313-216.406 0-46.527 14.936-89.506 40.281-124.844-54.593-79.158-91.563-185.741-91.563-268.438 0-12.751 0.991-25.072 2.813-36.938 32.423-13.843 130.727-50.188 262.5-50.188 135.52 0 239.92 37.385 270.938 49.875 1.926 11.918 2.875 24.395 2.875 37.25 0 82.696-36.792 189.332-91.438 268.438 25.293 35.285 40.344 78.369 40.344 124.844 0 119.335-98.166 216.406-218.438 216.406zM436.063 805.844c-102.681 0-186.063-82.756-186.063-184.344 0-39.657 12.829-76.242 34.375-106.375-46.474-67.448-77.875-158.242-77.875-228.813 0-10.773 0.741-21.289 2.25-31.438 27.739-11.762 111.326-42.625 223.688-42.625 5.621 0 10.858 0.396 16.375 0.5-4.788 10.929-9.107 22.197-12.281 33.906l-5.625 22.938c-3.071 18.996-4.094 33.939-4.094 49.188 0 46.006 10.086 98.144 27.469 149.875-6.037-0.729-11.953-1.813-18.25-1.813-86.131 0-156.188 69.316-156.188 154.719 0 12.803 1.815 25.238 4.781 37.156 5.517 3.487 14.192 9.108 20.438 14.156 9.576 7.963 15.469 17.531 15.469 17.531s50.797-46.048 98-54.688c17.226-3.227 45.542-4.375 72.656-4.844-8.431 26.178-13.281 53.449-13.281 81.344 0 29.508 5.976 57.396 14.875 83.938-18.007 5.725-36.786 9.688-56.719 9.688zM618.844 793.031c0 0 59.647-53.914 115.125-64.219 41.53-7.754 138.114-5.158 164.188-6.875 12.855-0.885 27.853-5.962 39.719-10.906-0.677-99.558-82.692-180.375-183.344-180.375-101.068 0-183.25 81.442-183.25 181.625-0.052 15.040 1.961 29.5 5.5 43.5 6.609 4.163 16.714 10.838 23.844 16.719 11.293 9.42 18.219 20.531 18.219 20.531zM175.844 640.75c-78.689 0-142.531-63.362-142.531-141.219 0-30.393 9.794-58.455 26.344-81.563-35.65-51.679-59.656-121.25-59.656-175.375 0-8.223 0.511-16.287 1.656-24.094l3.438-14.063c7.598-27.999 23.477-51.566 47.313-69.313 31.174-23.419 73.84-35.813 123.438-35.813 23.211 0 44.671 2.962 64.344 8.219-37.679 29.352-64.541 69.015-77.188 115.281l-4.844 19.719c-2.81 17.226-3.688 30.354-3.688 43.781 0 70.466 26.439 157.431 68.75 229.563-16.602 32.735-25.25 68.622-25.25 105.625 0 5.777 1.302 11.202 1.719 16.875-7.754 1.301-15.673 2.375-23.844 2.375zM492.844 260.344c11.814-42.936 36.278-79.021 72.656-106.188 47.671-35.806 112.996-54.844 189.031-54.844 75.983 0 141.381 18.986 189.156 54.844 36.326 27.166 60.759 63.231 72.469 106.063-42.831-16.029-140.42-46.094-265.844-46.094-122.145 0-214.585 29.357-257.469 46.219zM213.219 236.5c9.94-36.534 30.659-67.247 61.781-90.406 40.646-30.549 96.383-46.719 161.125-46.719 33.62 0 64.532 4.517 92.375 13-0.156 0.104-0.375 0.156-0.531 0.313-30.653 22.795-54.597 51.974-71.719 85.125-7.911-0.26-15.642-0.656-23.813-0.656-103.93 0-182.685 24.98-219.219 39.344z" />
<glyph unicode="&#xe010;" d="M511.906 996.375c-9.701 0-18.486-5.441-22.813-14.094l-144.406-289.906-322.938-46.469c-9.57-1.377-17.581-8.017-20.531-17.063-2.95-9.243-0.448-19.123 6.5-25.875l233.625-225.688-55.156-318.719c-1.639-9.505 2.321-19.147 10.188-24.719 4.457-3.146 9.69-4.781 15-4.781 4.064 0 8.142 0.974 11.813 2.875l288.813 150.438 288.875-150.438c3.736-1.966 7.78-2.938 11.844-2.938 5.178 0 10.511 1.697 14.969 4.844 7.8 5.572 11.732 15.214 10.094 24.719l-55.219 318.719 233.688 225.688c6.948 6.752 9.515 16.632 6.5 25.875-3.015 9.111-10.93 15.686-20.5 17.063l-322.969 46.469-144.406 289.906c-4.457 8.718-13.333 14.094-22.969 14.094zM511.906 844.375l113.094-226.938 250.781-36.125-181.5-175.188 7.406-42.75 35.656-205.906-225.5 117.469-225.531-117.469 35.594 205.969 7.406 42.75-181.406 175.219 250.875 36.094 19.125 38.5 94 188.375z" />
<glyph unicode="&#xe011;" d="M512 997.25c-9.686 0-18.457-5.417-22.813-14.063l-144.438-289.906-322.938-46.469c-9.556-1.365-17.541-8.087-20.531-17.188-2.99-9.166-0.651-19.083 6.5-25.844l233.625-225.656-55.188-318.656c-1.566-9.49 2.316-19.035 10.188-24.625 7.866-5.655 18.201-6.423 26.781-1.938l288.813 150.406 288.813-150.406c3.77-1.885 7.808-2.875 11.969-2.875 5.2 0 10.486 1.627 14.906 4.813 7.866 5.59 11.815 15.069 10.125 24.625l-55.188 318.656 233.688 225.656c6.956 6.761 9.428 16.678 6.438 25.844-2.99 9.1-10.846 15.757-20.531 17.188l-322.875 46.469-144.438 289.906c-4.29 8.646-13.155 14.063-22.906 14.063z" />
<glyph unicode="&#xe012;" d="M525.719 986.844c-42.304 0-76.963-30.496-84.25-74.219l-42.938-257.563c-4.256-26.118-23.66-49.598-34.688-52.5l-50.75-13.969c-16.251-4.385-27.531-19.743-27.531-37.219v-353.844c0-54.299 41.913-103.244 95.438-111.563l501.844-36.25c53.589 0 103.446 41.347 113.313 93.969l14.75 77.438c7.158 38.435 13.094 101.262 13.094 140.406v145.938c0 41.724-9.856 97.621-22.625 127.156-16.444 38.048-67.451 66.688-118.719 66.688h-193.344l5.469 130.969c2.193 51.203-33.256 106.591-80.719 125.938l-52.563 21.531c-11.672 4.643-23.722 7.094-35.781 7.094zM525.719 906.25c1.612 0 3.411-0.382 5.281-1.156l52.75-21.625c15.928-6.513 31.336-30.624 30.563-47.906l-5.5-130.969-3.469-83.969h277.375c22.184 0 41.334-12.196 44.688-18 7.545-17.541 16.063-62.008 16.063-95.219v-145.938c0-34.050-5.368-91.521-11.688-125.313l-14.781-77.656c-2.644-13.929-17.928-27.060-32.438-28.156l-493.125 35.594c-13.413 3.353-25.219 17.731-25.219 31.531v322.125l18.594 5.156c50.365 13.478 85.703 70.534 93.313 117.094l43 257.688c0.322 2.451 1.563 6.719 4.594 6.719zM20.688 587.031c-11.35 0-20.688-12.201-20.688-26.969v-443.906c0-14.768 9.273-26.906 20.688-26.906h201.844c11.414 0 20.719 12.139 20.719 26.906v443.906c0 14.832-9.24 26.969-20.719 26.969h-201.844z" />
<glyph unicode="&#xe013;" d="M141.156 985.219c-53.583 0-103.447-41.353-113.313-93.969l-14.75-77.438c-7.157-38.43-13.094-101.236-13.094-140.375v-145.906c0-41.718 9.858-97.625 22.625-127.156 16.442-38.043 67.457-66.656 118.719-66.656h193.313l-5.5-130.969c-2.192-51.197 33.293-106.594 80.75-125.938l52.531-21.531c11.735-4.771 23.817-7.156 35.875-7.156 42.299 0 76.901 30.502 84.188 74.219l42.938 257.531c4.256 26.114 23.693 49.567 34.719 52.469l50.719 14c16.249 4.385 27.531 19.745 27.531 37.219v353.781c0 54.292-41.888 103.245-95.406 111.563l-501.844 36.313zM801.469 945.563c-11.413 0-20.688-12.14-20.688-26.906v-443.875c0-14.83 9.21-26.938 20.688-26.938h201.844c11.348 0 20.688 12.172 20.688 26.938v443.875c0 14.766-9.275 26.906-20.688 26.906h-201.844zM139.406 904.531l493.188-35.594c13.412-3.353 25.219-17.733 25.219-31.531v-322.063l-18.563-5.156c-50.359-13.476-85.704-70.539-93.313-117.094l-43-257.656c-0.387-2.579-1.53-6.781-4.625-6.781-1.612 0-3.443 0.382-5.313 1.156l-52.719 21.594c-15.926 6.512-31.336 30.657-30.563 47.938l5.469 130.938 3.469 83.969h-277.313c-22.181 0-41.335 12.166-44.688 17.969-7.544 17.538-16.063 62.043-16.063 95.25v145.906c0 34.045 5.369 91.494 11.688 125.281l14.75 77.656c2.644 13.992 18.061 27.187 32.375 28.219z" />
<glyph unicode="&#xe014;" d="M714.094 1016.531c-18.656 0-35.839-6.997-48.469-19.562l-232.594-232.594c-12.694-12.694-19.688-29.877-19.688-48.469 0.064-22.567 10.243-45.587 27.938-63.281l53.938-53.906 76.813 74-40.031 40 185.5 185.406 188.094-188.094-185.406-185.438-37.594 37.656-76.844-74.063 54.281-54.156c17.759-17.823 40.838-28.031 63.469-28.031 18.656 0 35.78 6.936 48.281 19.438l232.594 232.531c12.694 12.63 19.625 29.873 19.625 48.594 0.064 22.503-10.18 45.647-27.875 63.406l-218.75 218.813c-17.695 17.631-40.714 27.75-63.281 27.75zM733.625 764.625c-11.732 0-22.879-4.483-31.406-12.625l-442.219-425.625c-17.887-17.118-18.463-45.7-1.281-63.844 8.463-8.719 20.317-13.781 32.563-13.781 11.861 0 22.947 4.547 31.281 12.625l442.25 425.563c8.719 8.334 13.65 19.603 13.906 31.656 0.256 12.117-4.292 23.534-12.563 32.125-8.527 8.976-20.094 13.906-32.531 13.906zM300.688 618.469c-18.656 0-35.839-6.997-48.469-19.563l-232.656-232.531c-14.361-14.489-21.206-34.149-19.219-55.563 1.859-20.387 11.6-40.415 27.5-56.25l218.813-218.688c17.631-17.759 40.713-27.875 63.344-27.875 18.656 0 35.776 6.937 48.406 19.375l232.656 232.594c28.978 29.042 25.313 78.154-8.281 111.813l-47.875 47.875-76.813-73.844 34.094-34.063-185.531-185.406-188.031 188.094 185.406 185.5 43.469-43.531 76.813 73.906-60.406 60.344c-17.631 17.695-40.652 27.813-63.219 27.813z" />
<glyph unicode="&#xe015;" d="M512 1018.531c-282.38 0-512-227.544-512-507.187 0-279.77 229.62-507.344 512-507.344 282.316 0 512 227.573 512 507.344 0 279.643-229.684 507.187-512 507.187zM512 933.813c235.221 0 426.469-189.603 426.469-422.469 0-232.993-191.312-422.5-426.469-422.5-235.094 0-426.469 189.443-426.469 422.5 0 232.866 191.375 422.469 426.469 422.469zM763.188 680.813c-9.135 0.082-18.381-2.683-26.344-8.5l-219.375-160.625-84.969 93.781c-16.229 17.883-43.833 19.228-61.844 3.063-17.947-16.229-19.226-43.96-3.125-61.844l111.5-123.219c8.592-9.483 20.503-14.375 32.531-14.375 9.037 0 18.079 2.802 25.844 8.594l251.25 183.969c19.538 14.319 23.787 41.808 9.531 61.219-8.54 11.601-21.649 17.817-35 17.938z" />
<glyph unicode="&#xe016;" d="M149.219 966.438c-4.637 0-8.438-2.956-8.438-6.563v-58.281h-69.563c-39.284 0-71.219-38.906-71.219-86.625v-674.25c0-47.783 31.935-86.688 71.219-86.688h881.625c39.155 0 71.156 38.904 71.156 86.688v674.25c0 47.719-31.939 86.625-71.094 86.625h-93.563v58.281c0 3.606-3.799 6.563-8.5 6.563h-139.625c-4.572 0-8.5-2.956-8.5-6.563v-58.281h-405.469v58.281c0 3.606-3.705 6.563-8.406 6.563h-139.625zM123.969 832.031h776.594c31.749 0 57.688-30.968 57.688-69.156v-571.531c0-37.995-25.874-69.094-57.688-69.094h-776.594c-31.81 0-57.688 31.099-57.688 69.094v571.531c0 38.124 25.813 69.156 57.688 69.156zM357.219 707.125c-3.542 0-6.438-4.583-6.438-10.25v-99.688c0-5.667 2.896-10.313 6.438-10.313h106.125c3.478 0 6.438 4.645 6.438 10.313v99.688c0 5.667-2.96 10.25-6.438 10.25h-106.125zM562.313 706.906c-3.478 0-6.438-4.553-6.438-10.156v-99.75c0-5.603 2.96-10.188 6.438-10.188h106.156c3.606 0 6.5 4.585 6.5 10.188v99.75c0 5.603-2.894 10.156-6.5 10.156h-106.156zM770.281 706.906c-3.606 0-6.531-4.553-6.531-10.156v-99.75c0-5.603 2.925-10.188 6.531-10.188h106.125c3.477 0 6.438 4.585 6.438 10.188v99.75c0 5.603-2.96 10.156-6.438 10.156h-106.125zM148.563 530.094c-3.536 0-6.375-4.645-6.375-10.313v-99.688c0-5.603 2.833-10.313 6.375-10.313h106.063c3.606 0 6.5 4.774 6.5 10.313v99.688c0 5.667-2.894 10.313-6.5 10.313h-106.063zM357.219 530.094c-3.542 0-6.438-4.645-6.438-10.313v-99.688c0-5.603 2.896-10.313 6.438-10.313h106.125c3.478 0 6.438 4.774 6.438 10.313v99.688c0 5.667-2.96 10.313-6.438 10.313h-106.125zM563.031 528.906c-3.478 0-6.5-4.489-6.5-10.156v-99.75c0-5.603 3.022-10.188 6.5-10.188h106.125c3.536 0 6.375 4.585 6.375 10.188v99.75c0 5.667-2.833 10.156-6.375 10.156h-106.125zM770.469 528.906c-3.606 0-6.563-4.489-6.563-10.156v-99.75c0-5.603 2.956-10.188 6.563-10.188h106c3.542 0 6.438 4.585 6.438 10.188v99.75c0 5.667-2.896 10.156-6.438 10.156h-106zM148.563 352.219c-3.536 0-6.375-4.585-6.375-10.188v-99.688c0-5.667 2.833-10.313 6.375-10.313h106.063c3.606 0 6.5 4.645 6.5 10.313v99.688c0 5.603-2.894 10.188-6.5 10.188h-106.063zM357.219 349c-3.542 0-6.438-4.649-6.438-10.188v-99.75c0-5.603 2.896-10.188 6.438-10.188h106.125c3.478 0 6.438 4.585 6.438 10.188v99.75c0 5.538-2.96 10.188-6.438 10.188h-106.125zM563.031 346.031c-3.478 0-6.5-4.649-6.5-10.188v-99.813c0-5.603 3.022-10.156 6.5-10.156h106.125c3.536 0 6.375 4.554 6.375 10.156v99.813c0 5.538-2.833 10.188-6.375 10.188h-106.125z" />
<glyph unicode="&#xe017;" d="M508.844 1023.5c-75.872 0-140.434-49.104-161.531-119.75-143.809-62.904-235.625-206.011-235.625-370.594v-237.938c0-19.291-6.909-44.106-60.781-65.719-24.323-9.807-31.621-27.358-33.75-36.906-4.129-18.194 3.361-34.464 11.813-43.625 7.613-8.323 18.397-13.031 29.688-13.031h294.969c16.078-78.781 78.573-135.938 155.344-135.938 76.66 0 139.115 57.156 155.219 135.938h305c21.484 0 39.22 16.828 40.188 38.313 0.903 17.355-9.151 42.088-40.313 54.281-55.936 21.871-63.094 47.139-63.094 66.688v237.938c0 164.583-91.814 307.688-235.688 370.656-21.291 70.582-85.823 119.688-161.438 119.688z" />
<glyph unicode="&#xe018;" d="M751.344 974.656c-70.61 0-141.254-26.255-193.813-78.75l-496.563-496.625c-39.1-39.1-60.714-90.319-60.969-144.281-0.255-54.217 21.119-105.556 60.219-144.656 40.248-40.248 91.988-60.344 143.781-60.344 52.176 0 104.337 20.334 145.031 61.156l480.094 480.125c48.285 48.413 48.222 124.060-0.063 172.281-46.563 46.563-125.72 46.563-172.219 0l-347.688-347.688c-15.5-15.563-15.5-40.843 0-56.406 15.563-15.563 40.905-15.563 56.469 0l347.688 347.719c16.52 16.52 42.98 16.363 59.5-0.094 16.967-16.967 16.904-42.47-0.063-59.5l-480.031-480.031c-49.752-49.624-127.073-49.959-176.188-0.781-23.919 23.919-37.066 55.121-36.875 87.906 0.128 32.785 13.482 64.108 37.656 88.219l496.563 496.688c74.5 74.437 200.343 74.437 274.844 0 35.783-35.847 55.563-81.639 55.563-129.031s-19.716-93.247-55.563-129.094l-357.656-357.094c-15.563-15.563-15.626-40.812-0.063-56.375 15.563-15.627 40.843-15.562 56.406-0.063l357.688 357.063c50.9 50.9 78.906 116.804 78.906 185.5s-28.005 134.57-78.969 185.406c-52.495 52.495-123.078 78.75-193.688 78.75z" />
<glyph unicode="&#xe019;" d="M13.906 1024c-7.725 0-13.906-9.773-13.906-21.875v-214.313c0-12.231 6.181-21.875 13.906-21.875h227.875c7.596 0 13.844 9.708 13.844 21.875v214.313c0 12.038-6.248 21.875-13.844 21.875h-227.875zM395.25 1024c-7.725 0-13.906-9.773-13.906-21.875v-214.313c0-12.231 6.181-21.875 13.906-21.875h227.969c7.532 0 13.688 9.708 13.688 21.875v214.313c0 12.038-6.156 21.875-13.688 21.875h-227.969zM776.531 1024c-7.854 0-13.875-9.773-13.875-21.875v-214.313c0-12.231 6.021-21.875 13.875-21.875h228.031c7.532 0 13.719 9.708 13.719 21.875v214.313c0 12.038-6.187 21.875-13.719 21.875h-228.031zM13.719 640.125c-7.532 0-13.719-9.898-13.719-22v-214.25c0-12.038 6.187-22 13.719-22h228c7.661 0 13.906 9.962 13.906 22v214.25c0 12.102-6.246 22-13.906 22h-228zM395.25 640.125c-7.725 0-13.906-9.898-13.906-22v-214.25c0-12.038 6.181-22 13.906-22h227.75c7.789 0 13.906 9.962 13.906 22v214.25c0 12.102-6.117 22-13.906 22h-227.75zM776.406 640.125c-7.725 0-13.75-9.898-13.75-22v-214.25c0-12.038 6.025-22 13.75-22h227.969c7.725 0 13.781 9.962 13.781 22v214.25c0 12.102-6.056 22-13.781 22h-227.969zM13 258.063c-7.21-0.585-13-10.151-13-21.875v-214.313c0-12.102 6.187-21.875 13.719-21.875h228c7.661 0 13.906 9.773 13.906 21.875v214.313c0 12.038-6.246 21.875-13.906 21.875h-228c-0.235 0-0.486 0.019-0.719 0zM394.531 258.063c-7.386-0.585-13.188-10.151-13.188-21.875v-214.313c0-12.102 6.181-21.875 13.906-21.875h227.75c7.789 0 13.906 9.773 13.906 21.875v214.313c0 12.038-6.117 21.875-13.906 21.875h-227.75c-0.241 0-0.481 0.019-0.719 0zM775.688 258.063c-7.378-0.585-13.031-10.151-13.031-21.875v-214.313c0-12.102 6.025-21.875 13.75-21.875h227.969c7.725 0 13.781 9.773 13.781 21.875v214.313c0 12.038-6.056 21.875-13.781 21.875h-227.969c-0.241 0-0.481 0.019-0.719 0z" />
<glyph unicode="&#xe020;" d="M465.656 1024c-115.796-0.145-144.563-70.094-144.563-70.094l4.219-440.531c0 0 92.612 84.193 194.75 52.156 101.993-31.818 210.373-162.933 376.875-147.75l7.281 356.031c-31.818 53.031-158.66 23.387-218.156 76.563-59.496 53.031-144.275 173.843-220.406 173.625zM208.219 1011.656c-42.061 0-76.219-34.064-76.219-76.125v-859.406c0-42.061 34.157-76.125 76.219-76.125s76.031 33.991 76.031 76.125v859.406c0 42.061-33.97 76.125-76.031 76.125z" />
<glyph unicode="&#xe021;" d="M577.031 1015.094l-0.125-0.031c-46.047 0-62.196-4.544-89.75-31.781l-459.719-455.813c-17.609-17.546-27.438-40.921-27.438-65.688 0-24.893 9.765-48.141 27.438-65.75l360.281-356.906c17.483-17.419 41.168-27.125 66.125-27.125 25.21 0 48.764 9.706 66.5 27.125l466 462.188c21.98 21.98 37.312 45.417 37.312 82.281v350.344c1.325 24.64-0.624 39.457-17.156 56.813-16.279 17.102-43.946 24.188-69.156 24.188-2.217 0-4.44 0.021-6.594-0.094l-353.719 0.25zM576.906 935.906l353.844-0.25c1.324 0 5.326 0.067 6.656 0.125 2.649 0 5.066-0.196 7.156-0.438v-351.813c0-7.601-0.003-12.16-13.875-26.031l-465.813-461.938c-3.040-2.977-6.597-4.438-11.031-4.438-3.991 0-7.588 1.369-10.375 4.156l-360.188 356.688c-2.85 2.787-4.094 5.887-4.094 9.688 0 3.737 1.303 6.84 3.906 9.438l459.75 455.813c5.637 5.574 8.222 7.405 7.969 7.469 1.9 0.57 7.788 1.531 26.094 1.531zM723.125 890.688c-39.842 0-79.659-15.038-110.031-45.094-60.745-60.301-60.745-157.856 0-218.094 60.745-60.111 159.284-60.111 220.156 0 60.682 60.238 60.682 157.919 0 218.094-30.436 30.056-70.283 45.094-110.125 45.094z" />
<glyph unicode="&#xe022;" d="M509.688 1024c-177.468 0-321.688-143.021-321.688-318.906 0-48.389 11.21-94.176 30.781-135.281-0.749 0.38-1.595 0.9-2.344 1.344-0.633-2.787-0.625-5.526-0.625-8.313v-507.438c0-58.649 35.979-69.168 80.125-23.313l123.5 128.313c43.89 45.792 81.658 85.001 83.875 87.281 2.102 2.217 5.811 2.099 8.281-0.25 2.159-2.47 39.829-41.985 83.531-88.094l124.219-130.625c43.639-45.919 79.406-35.712 79.406 22.938v513.844c21.028 42.245 32.938 89.495 32.938 139.594h-0.313c0 175.821-144.283 318.906-321.688 318.906zM509.688 938.125c129.714 0 235.219-104.585 235.219-233.094s-105.504-232.938-235.219-232.938c-129.585 0-235.313 104.428-235.313 232.938s105.728 233.094 235.313 233.094z" />
<glyph unicode="&#xe023;" d="M473.031 1024c-150.972-0.396-292.87-10.043-299.313-31.063-13.68-44.775-31.719-91.956-31.719-142.688 0-177.715 141.431-393.863 319.906-416.094l-3.313-344.844c0-1.699 0.023-3.167 0.656-4.688h-204.188c-24.444 0-44.031-18.879-44.031-42.25 0-23.434 19.65-42.375 44.031-42.375h495.563c24.384 0 43.781 18.941 43.781 42.375 0 23.307-19.397 42.188-43.781 42.188h-204.813c0 1.526 0.625 2.977 0.625 4.688l3.063 344.094c181.642 19.57 319.75 237.038 319.75 416.906 0 50.731-11.704 105.069-31.781 142.688-10.565 20.087-193.336 31.512-364.438 31.063z" />
<glyph unicode="&#xe024;" d="M227.969 1024c-42.399 0-76.813-29.118-76.813-64.875v-16.969c-18.578-8.173-31.156-23.901-31.156-41.844v-783.781c0-26.243 26.928-47.625 59.813-47.625l541.156-68.906c32.884 0 59.719 21.382 59.719 47.625v67.563h26.094c42.462 0 77.031 29.118 77.031 64.875v779.063c0 35.757-34.694 64.875-77.156 64.875h-578.688zM225.156 966.281h563.25c22.029 0 40.594-13.17 40.594-28.75v-758.313h0.094c0-15.644-18.596-28.781-40.625-28.781h-7.906v677.219c0 26.18-26.834 47.625-59.719 47.625l-534.5 71.844c0 0-0.010 19.156 38.813 19.156z" />
<glyph unicode="&#xe025;" d="M109.844 1013.344l-11.969-0.125c-37.032-1.345-66.247-32.475-65.094-69.187 0.961-36.584 30.479-65.281 73.406-65.281h0.063c41.71 0 413.503-7.837 618.719-277.188 185.931-243.914 163.131-495.375 162.875-497.938-1.922-17.876 3.285-35.503 14.625-49.406 11.404-14.031 27.529-22.739 44.188-24.469l8.219-0.531c34.662 0 63.415 25.887 66.875 59.844 1.474 12.173 32.349 302.924-189.781 594.25-239.173 314.135-643.511 330.031-722.125 330.031zM88.844 795l-9.375-0.125c-36.968-1.345-66.122-32.504-64.969-69.344 1.089-36.007 31.148-65.406 71-65.406h0.063c30.305 0 300.345-5.559 448.219-199.563 133.073-174.783 118.036-357.394 117.844-359.188-3.524-36.712 23.318-69.846 58.813-73.563l8.406-0.625c34.534 0 63.225 25.88 66.813 60.094 1.089 9.418 23.757 233.924-144.875 455.094-183.176 240.391-491.968 252.625-551.938 252.625zM72.75 569.219l-7.313-0.125c-17.94-0.513-34.667-7.898-46.969-20.969-12.43-13.070-18.95-30.245-18.438-48.313 1.089-36.584 30.698-65.281 71.063-65.281h0.063c18.837 0 186.385-3.467 277.813-123.406 81.561-107.253 74.038-217.937 73.781-221.781-3.972-36.776 22.816-70.031 58.375-73.875l8.531-0.594c34.598 0 63.351 25.89 66.875 59.719 0 1.602 17.964 162.596-100.438 318.094-127.884 167.992-341.762 176.531-383.344 176.531zM138.156 290.438c-75.405 0-136.531-61.126-136.531-136.531s61.126-136.531 136.531-136.531c75.405 0 136.531 61.126 136.531 136.531s-61.126 136.531-136.531 136.531z" />
<glyph unicode="&#xe026;" d="M511.094 1024c-17.024-0.405-68.35-13.399-465.656-428.375l-9.438-9.938v-488.875c0-53.378 36.846-96.813 82.125-96.813h789.719c45.279 0 82.125 43.435 82.125 96.813v485.125h-0.313l-9.313 9.813c-38.647 41.006-73.915 78.111-106.313 111.719v249.156c0 13.329-3.809 24.375-8.656 24.375h-142.406c-4.719 0-8.688-10.983-8.688-24.375v-88.125c-163.959 159.496-189.794 159.5-201.656 159.5-0.488 0-0.982 0.013-1.531 0zM513.094 927.906c47.958-30.547 226.902-208.093 385.313-375.688v-432.125c0-16.772-8.922-26.719-12.813-26.719h-237.125v214.125c0 12.754-6.311 23.031-14.219 23.031h-234.688c-7.908 0-14.281-10.341-14.281-23.031v-214.125h-245c-3.89 0-12.844 9.948-12.844 26.656v435.438c159.24 165.873 338.017 341.508 385.656 372.438z" />
<glyph unicode="&#xe027;" d="M503.031 1025.813c-23.024 0-34.5-11.54-34.5-34.375v-52.75c-73.29-6.825-134.409-33.953-183.906-81.281-49.431-47.328-74.031-108.038-74.031-182.156 0-54.855 19.497-100.647 58.406-136.813 38.779-36.293 105.447-68.196 199.531-95.688v-177.438c-28.576 0-62.825 8.073-102.5 24.594-39.675 16.393-64.81 24.625-75.781 24.625-22.832 0-42.673-9.551-58.875-28.75-16.074-19.072-24.219-41.21-24.219-66.469 0-47.265 29.208-81.335 87.25-101.938 58.236-20.666 116.208-30.938 174.125-30.938v-50.313c0-22.835 11.476-34.313 34.5-34.313 23.346 0 34.906 11.477 34.906 34.313v50.375c63.849 0 123.548 24.517 178.656 73.313 55.047 48.987 82.656 114.556 82.656 197.094 0 72.46-23.532 127.74-70.031 165.438-46.688 37.824-110.529 67.743-191.281 89.813v161.688c15.436 0 36.908-7.059 64.719-21.219s48.502-21.25 62.344-21.25c23.154 0 41.837 8.558 56.125 25.844 14.224 17.222 21.5 37.228 21.5 60.063 0 42.8-21.969 73.741-65.531 92.813-43.566 19.199-89.914 28.594-139.156 28.594v52.75c0 22.835-11.561 34.375-34.906 34.375zM468.531 773.719v-142.031c-18.562 4.529-33.757 12.37-45.813 23.469-11.992 11.099-17.844 25.458-17.844 43.063 0 19.837 5.852 36.419 17.844 49.75 12.055 13.267 27.187 21.859 45.813 25.75zM537.938 424.375c23.090-6.761 39.843-16.507 50.75-28.563 10.844-12.311 16.219-29.916 16.219-52.688 0-20.666-6.368-38.778-19.125-54.469s-28.772-23.406-47.844-23.406v159.125z" />
<glyph unicode="&#xe028;" d="M67.188 997.938c-37.033 0-67.188-30.125-67.188-67.094s30.154-67.125 67.188-67.125h123.438l15.219-76.906c-0.193-2.705-0.25-5.418-0.25-8.188v-382.5c0-18.42 4.291-36.577 12.406-53l-40.875-95.969c-8.824-20.481-6.704-44.1 5.469-62.906 3.048-4.775 6.713-9.090 10.844-12.875-3.687-11.248-5.625-23.162-5.625-35.375 0-62.86 51.504-114 114.75-114 63.118 0 114.531 51.14 114.531 114 0 5.925-0.442 11.86-1.344 17.656h271.844c-0.902-5.732-1.344-11.667-1.344-17.656 0-62.86 51.441-114 114.688-114 63.182 0 114.598 51.138 114.469 114.063 0 12.646-2.087 24.944-6.031 36.531 12.613 12.169 20.528 29.156 20.594 47.906 0 37.033-30.152 67.188-67.25 67.188h-462.5l430.625 63.031c63.89 0 116.17 50.63 118.875 113.813l72.781 304.563 1.094 9.406c0 65.565-53.4 118.969-119.094 118.969h-580.094c-1.224 0-2.433-0.063-3.656-0.063l-9.219 46.563c-6.312 31.237-33.871 53.969-65.688 53.969h-178.656zM324.281 817.156h580.094c19.901 0 36.41-15.145 38.406-34.531l-72.469-303.219-1.094-9.406c0-21.254-17.327-38.52-44.313-38.906l-500.625-73.281c-2.576 0-5.209 0.268-7.656 0.719l-13.219 2.25-8.875 11.063c-3.929 4.895-8.563 13.135-8.563 24.406l0.25 387.156 0.969 6.688-2.375 11.844 22.344 11.156c5.474 2.705 11.2 4.063 17.125 4.063z" />
<glyph unicode="&#xe029;" d="M1015.096 569.389h-104.748c-7.823 54.25-26.648 104.874-54.314 149.711l76.828 77.081c3.371 3.434 1.648 10.812-3.816 16.345l-98.385 98.832c-5.66 5.66-13.038 7.378-16.472 3.88l-74.411-74.792c-40.449 27.157-86.113 46.872-135.273 57.43v101.439c0 7.886-3.943 14.373-8.84 14.373h-146.66c-4.961 0-8.967-6.487-8.967-14.373v-101.439c-63.151-13.483-120.708-42.293-168.79-82.487l-75.044 75.491c-5.724 5.597-13.038 7.25-16.409 3.816l-103.73-104.047c-3.498-3.562-1.792-10.875 3.88-16.536l89.357-89.801c-17.299-35.615-29.383-74.219-35.234-114.922h-125.1c-4.897 0-8.967-6.55-8.967-14.373v-139.726c0-7.886 4.007-14.31 8.967-14.31h136.611c11.702-39.622 29.128-76.636 51.833-110.025l-88.276-88.656c-3.434-3.434-1.59-10.748 3.88-16.345l98.385-98.832c5.47-5.66 12.911-7.25 16.345-3.816l91.583 91.899c36.76-22.387 77.337-39.177 120.581-48.462v-96.86c0-7.822 3.943-14.246 8.967-14.246h146.66c4.897 0 8.84 6.424 8.84 14.246v96.988c48.269 10.303 93.297 29.573 133.174 56.030l80.135-80.515c5.533-5.533 12.847-7.187 16.406-3.752l103.667 104.111c3.498 3.434 1.792 10.875-3.752 16.408l-81.026 81.342c19.716 30.845 35.17 64.489 45.664 100.358h116.387c4.961 0 8.967 6.424 8.967 14.31v139.726c0 7.95-3.943 14.5-8.904 14.5zM522.271 718.718c113.204 0 205.359-92.599 205.359-206.377s-92.155-206.313-205.359-206.313c-113.395 0-205.55 92.536-205.55 206.313s92.155 206.377 205.55 206.377z" />
<glyph unicode="&#xe030;" d="M54.469 1024c-54.744 0-70.958-34.518-36.063-76.969l343.5-415.219c35.151-42.194 63.719-121.847 63.719-176.719v-313.781c0-55.064 141.063-55.064 141.063 0v313.781c0 54.808 28.82 134.524 63.844 176.719l343.25 415.219c35.023 42.451 18.813 76.969-36.188 76.969h-883.125z" />
<glyph unicode="&#xe031;" d="M268.344 1024c-31.609 0-60.288-12.941-80.938-33.781-20.65-20.777-33.534-49.758-33.406-81.625v-793.188c0-31.803 12.756-60.722 33.406-81.563 20.65-20.904 49.328-33.844 80.938-33.844h481.438c31.421 0 60.099 12.939 80.813 33.844 20.65 20.841 33.531 49.76 33.531 81.563v793.188c0 31.867-12.881 60.848-33.531 81.625-20.65 20.841-49.328 33.781-80.813 33.781h-481.438zM219 964.844l-11.719-13c2.491 3.569 5.223 6.971 8.219 10.094 1.014 1.083 2.341 1.886 3.5 2.906zM281.344 929.469h455.313c7.648 0 14.956-2.929 20.438-8.219 5.417-5.226 8.5-12.169 8.5-19.563v-712.156c0-15.36-13.068-27.781-28.938-27.781h-455.313c-15.931 0-28.875 12.422-28.875 27.781v712.094c0 15.296 13.008 27.844 28.875 27.844zM511.656 130.156c17.909 0 32.313-14.469 32.313-32.25s-14.403-32.313-32.313-32.313c-17.782 0-32.25 14.531-32.25 32.313 0 17.845 14.468 32.25 32.25 32.25zM252.719 41.688l19.75-1.656h-4.125c-5.351 0-10.654 0.637-15.625 1.656z" />
<glyph unicode="&#xe032;" d="M560.5 934.813c-115.795 0-218.56-77.347-256.813-188.344-20.812 6.094-42.211 9.125-64.125 9.125-132.133 0-239.438-111.714-239.438-248.969 0-51.090 14.802-100.239 42.875-142.188 42.337-69.957 110.267-106.844 196.563-106.844h587.469c3.242 0 6.165 0.082 9.406 0.406h1.344c6.483 0.324 12.906 1.027 19 2 0.194 0.065 0.527 0.063 0.656 0.063 2.788 0.519 5.592 1.106 8.25 1.625 1.102 0.259 2.398 0.524 3.5 0.719 0.065 0 0.5 0.125 0.5 0.125l1.563 0.313c87.916 20.877 150.805 101.153 152.75 194.969 0 1.556 0.125 3.105 0.125 4.531 0 110.997-85.397 201.703-191.531 204.75-7.975 148.925-126.994 267.719-272.094 267.719zM558.938 861.469c110.867 0 201.25-95.228 201.25-212.125 0-4.733-0.205-9.593-0.594-15.688-0.713-9.466 3.058-18.802 10.125-25.156 7.197-6.354 16.724-9.217 26.125-7.531 6.937 1.167 14.007 1.75 20.75 1.75 70.8 0 128.375-61.022 128.375-135.906v-2.906c-1.297-62.566-42.415-115.721-100.313-129.531l-1.156-0.281c-0.843-0.195-1.503-0.37-2.281-0.5-1.621-0.389-3.245-0.709-5.125-0.969 0-0.065-0.308-0.063-0.438-0.063-3.89-0.584-7.978-1.118-12.063-1.313h-0.969c-2.010-0.13-4.084-0.25-6.094-0.25h-567.875c-62.566 0-107.395 24.243-137.219 73.906-0.324 0.389-0.584 0.986-0.844 1.375-20.553 30.472-31.25 66.061-31.25 103.406 0 98.354 76.015 178.469 169.313 178.469 24.183 0 47.581-5.309 69.625-15.813 8.623-4.085 18.728-3.998 27.156 0.281 8.558 4.149 14.714 12.161 16.594 21.563 19.775 96.928 102.701 167.281 196.906 167.281zM910.219 166l-746-0.281c-22.692-0.065-40.906-18.344-40.906-40.906 0.065-22.627 18.279-41.034 40.906-40.969l746.125 0.25c22.498 0.065 40.844 18.346 40.844 40.844 0 22.692-18.341 40.998-40.969 41.063z" />
<glyph unicode="&#xe033;" d="M560.188 859.219c-115.756 0-218.478-77.32-256.719-188.281-20.806 6.093-42.218 9.156-64.125 9.156-132.028 0-239.344-111.695-239.344-248.906 0-51.073 14.844-100.19 42.844-142.125 42.321-69.934 110.232-106.75 196.5-106.75h587.281c3.306 0 6.23-0.015 9.406 0.25h1.625c6.481 0.389 12.907 1.059 19 2.031 0 0.059 0.625 0.063 0.625 0.063 2.799 0.519 5.655 1.078 8.313 1.531 1.090 0.265 2.327 0.522 3.5 0.781l0.656 0.125 1.563 0.406c87.886 20.87 150.743 101.089 152.688 194.875v4.531c0 110.832-85.495 201.514-191.594 204.625l-0.188 0.031c-7.972 148.942-126.979 267.656-272.031 267.656zM553.438 734.531c24.176 0.118 43.964-19.628 44.094-44.063v-248.656l89.875 80.375c18.080 16.203 45.832 14.595 61.906-3.813 7.065-7.972 11.027-18.335 11.156-29.094 0-12.769-5.573-24.822-14.906-33.313h-0.125l-139.938-139.094c-4.019-5.833-27.372-26.719-52.844-26.719s-41.85 16.156-49.563 24.906l-145.656 164.344c-7.065 8.102-11 18.491-11 29.25 0 12.639 5.191 24.822 14.719 33.313 8.88 7.843 20.019 11.778 31.75 11 11.667-0.648 22.412-5.933 30.125-14.813l86.719-98.594v250.5c0 24.305 19.512 44.339 43.688 44.469z" />
<glyph unicode="&#xe034;" d="M71.188 947.531c-39.223 0-71.188-38.976-71.188-86.781v-674.094c0-47.805 31.964-86.656 71.188-86.656h881.688c39.096 0 71.125 38.851 71.125 86.656v674.031c0 47.805-32.029 86.844-71.125 86.844h-881.688zM119.844 868h774.156l-360-360c-14.367-14.367-39.727-14.367-54.094 0l-360.063 360zM944.594 810.375v-478.156l-239.156 239.031 239.156 239.125zM79.469 800.219l230.875-230.875-230.875-230.938v461.813zM651.344 517.156l293.25-293.125v-37.375c0-2.988-0.617-5.344-1.063-7.188h-863c-0.636 1.78-1.063 4.2-1.063 7.188v43.531l284.969 285.063 61.438-61.406c21.551-21.55 50.39-33.438 81.031-33.438 30.702 0 59.574 11.887 81.125 33.438l63.313 63.313z" />
<glyph unicode="&#xe035;" d="M223.563 950.625c-32.958 0-59.813-32.753-59.813-72.906v-566.25c0-40.153 26.855-72.813 59.813-72.813h740.625c32.893 0 59.813 32.659 59.813 72.813v566.25c-0.064 40.153-26.983 72.906-59.813 72.906h-740.625zM277.875 870.313h623.344l-288.969-288.969c-12.078-12.078-33.392-12.078-45.406 0l-288.969 288.969zM943.625 821.875v-374.563l-187.344 187.219 187.344 187.344zM244.25 813.094l180.156-180.156-180.156-180.188v360.344zM49.531 772.344c-27.24 0-49.531-22.356-49.531-49.531v-597.281c0-27.304 22.291-49.531 49.531-49.531h800.813c27.24 0 49.531 22.291 49.531 49.531v63.031h-80.313v-32.313h-739.25v535.781h32.313v80.313h-63.094zM710.938 589.125l232.688-232.563v-37.594h-699.375v42.906l225.563 225.656 51.594-51.594c18.117-18.117 42.332-28.156 68.156-28.156 25.827 0 50.006 9.975 68.188 28.156l53.188 53.188z" />
<glyph unicode="&#xe036;" d="M512.031 903.438c-263.37 0-476.844-79.676-476.844-178.125v-81.75c3.61-97.353 186.525-179.969 476.844-179.969 299.281 0 474.431 85.324 476.688 184.031v77.688c0 98.514-213.447 178.189-476.688 178.125zM45.625 527.313c-5.413 0.094-10.947-1.026-16.188-3.438-18.697-8.639-26.954-30.678-18.25-49.375 1.032-2.385 3.434-7.023 7.625-13.406 19.342-36.556 113.454-163.309 490.875-163.438h12.406c377.486 0.129 471.596 126.882 490.937 163.438 4.126 6.447 6.596 11.021 7.563 13.406 8.639 18.697 0.324 40.8-18.438 49.375-18.632 8.575-40.769 0.478-49.344-18.219-0.58-1.418-71.119-132.177-437-133.531-365.945 1.354-436.387 132.048-437.031 133.531-6.163 13.438-19.324 21.417-33.156 21.656zM36.094 349.25c-4.823-0.143-9.67-1.247-14.313-3.375-18.761-8.639-26.95-30.678-18.375-49.375 0.967-2.385 3.341-7.023 7.531-13.406 19.342-36.556 113.481-163.242 491.031-163.5h12.313c377.421 0.193 471.627 126.944 490.969 163.5 4.062 6.383 6.5 11.085 7.531 13.406 8.575 18.697 0.449 40.736-18.312 49.375-18.761 8.51-40.738 0.384-49.313-18.313-0.58-1.354-71.182-132.082-437.063-133.5-365.881 1.354-436.482 132.146-437.063 133.5-6.383 14.023-20.467 22.117-34.938 21.688z" />
<glyph unicode="&#xe037;" d="M101.732 43.638c-27.274 0-52.91 10.556-72.12 29.634-39.731 39.927-39.469 104.965 0.715 145.155l466.084 465.886-71.661 71.725 8.064 20.98c15.342 40.452-5.442 96.114-14.817 114.21l-12.064 23.144 79.397 75.397 331.023-336.269 6.425 6.359c12.785 13.047 28.717 20.521 43.272 20.521h14.162l14.621-11.473 117.618-117.619c18.227-18.423 14.621-48.713-8.979-72.184l-155.844-155.645c-12.85-13.112-28.651-20.652-43.337-20.652h-14.618l-14.489 11.932-127.193 127.388-1.43 18.62c0 14.62 7.409 30.486 20.521 43.599l4.589 4.589-30.88 31.077-466.215-465.952c-19.472-19.669-45.367-30.421-72.838-30.421z" />
<glyph unicode="&#xe038;" d="M513.656 1024c-12.625 0-22.904-10.158-23.031-22.656l-1.031-120.719c0-12.561 10.094-22.968 22.719-23.031 12.561-0.063 22.842 9.969 22.969 22.594l1 120.781c0 1.459-0.119 3.103-0.5 4.563-1.967 10.404-11.15 18.342-22.125 18.469zM270.656 940.719c-5.829-0.040-11.622-2.308-16.031-6.813-7.803-7.93-8.713-19.9-2.75-28.719 0.888-1.269 1.859-2.42 2.938-3.625l86.031-84.688c9.072-8.755 23.525-8.696 32.344 0.313 8.945 9.072 8.759 23.399-0.25 32.344l-86.094 84.625c-4.504 4.409-10.359 6.602-16.188 6.563zM761.281 940.719c-5.471-0.224-10.905-2.429-15.188-6.563l-86.031-84.625c-8.945-8.945-9.132-23.272-0.25-32.344 8.818-9.009 23.274-9.067 32.219-0.313l86.094 84.688c1.205 1.205 2.175 2.356 3 3.625 5.963 8.818 4.989 20.789-2.688 28.719-4.718 4.786-10.956 7.066-17.156 6.813zM516.063 782.344c-134.114 0-243.313-109.104-243.313-243.281 0-52.783 48.114-130.112 97.344-204.719 7.486-11.356 15.966-24.317 18.25-28.25 0.127-3.299-1.082-10.53-1.844-14.844-2.982-16.241-7.346-40.773 9.656-60.313 8.565-9.77 19.14-21.969 119.25-21.969 98.143 0 111.794 11.246 121.438 28.375 10.531 19.096 8.243 39.19 6.594 53.781-0.634 4.631-1.444 12.298-1 15.406 3.045 5.837 13.745 22.022 22.5 35.281 49.738 74.797 94.281 146.307 94.281 197.25 0 134.178-109.042 243.281-243.156 243.281zM516 707.875c93.068 0 168.75-75.618 168.75-168.813 0-32.736-57.418-119.202-81.906-156.125-19.349-29.246-27.354-41.565-30.906-51.906-5.71-16.875-4.301-33.191-2.969-45.625-12.688-1.079-31.167-1.938-53.625-1.938-22.712 0-41.274 0.796-54.406 1.938 2.22 13.703 3.724 30.657-2.938 47.469-3.362 8.311-9.952 18.329-25.813 42.5-23.283 35.21-85 128.732-85 163.688 0 93.195 75.681 168.813 168.813 168.813zM427.656 180.031c-16.45 0.091-31.012-11.801-33.656-28.531-2.982-18.652 9.568-35.987 28.156-38.969l177.313-28.156c2.347-0.444 4.654-0.438 6.938-0.438 15.733 0.761 29.369 12.416 31.906 28.594 2.982 18.461-9.6 35.925-28.125 38.906l-177.375 28.156c-1.731 0.274-3.454 0.428-5.156 0.438zM456.406 46.688c-12.498 0.063-22.873-10.032-23-22.656 0-12.498 10-22.841 22.625-23.031l120.688-1c1.586 0 3.229 0.119 4.625 0.5 10.468 2.157 18.405 11.18 18.469 22.219 0.063 12.625-10.096 22.842-22.594 22.969l-120.813 1z" />
<glyph unicode="&#xe039;" d="M505.656 1024c-184.991 0-335.656-149.256-335.656-332.625 0-105.792 87.165-249.468 139.25-325.813 34.183-50.010 71.112-97.407 104.063-133.406 52.215-57.080 75.287-65 92.281-65 17.059 0 40.030 7.92 92.375 65 32.951 35.999 69.911 83.397 104.094 133.406 51.956 76.344 139.281 220.020 139.281 325.813 0 183.304-150.567 332.625-335.688 332.625zM505.594 952.719c145.359 0 263.623-117.219 263.688-261.281 0-60.323-42.933-159.553-117.656-272.156-63.112-94.83-121.772-158.476-146.031-177.156-24.324 18.681-82.957 82.326-145.875 177.156-74.982 112.603-117.844 211.833-117.844 272.156 0 144.062 118.36 261.281 263.719 261.281zM504.25 872.75c-84.399 0-152.813-67.822-152.813-151.469s68.413-151.469 152.813-151.469c84.399 0 152.813 67.822 152.813 151.469s-68.413 151.469-152.813 151.469zM375.625 78.688c-21.859 0-39.563-17.588-39.563-39.188 0-21.729 17.768-39.248 39.563-39.313l259.063-0.188c21.794 0 39.563 17.523 39.563 39.188s-17.578 39.219-39.438 39.219l-259.188 0.281z" />
<glyph unicode="&#xe040;" d="M511.5 1024c-144.778 0-225.781-89.68-225.781-229.844v-35.719h-163.594c-41.944 0-76.125-39.595-76.125-88.25v-581.969c0-48.585 34.181-88.219 76.125-88.219h783.375c42.014 0 76.219 39.633 76.219 88.219v581.969c0 48.585-34.274 88.25-76.219 88.25h-168.25v35.719c0 140.164-80.972 229.844-225.75 229.844zM511.5 918.031c92.487 0 113.875-61.374 113.875-127.156v-32.438h-227.813v32.438c0 65.713 21.45 127.156 113.938 127.156zM154.563 674.531h718.5c8.179 0 17.344-12.219 17.344-28.438v-533.813c0-16.218-9.165-28.313-17.344-28.313h-718.5c-8.039 0-17.188 12.094-17.188 28.313v533.813c0 16.218 9.148 28.438 17.188 28.438zM511.719 580.938c-62.427 0-112.969-50.691-112.969-113.188 0-44.391 25.521-83.818 62.781-102.344l-50.813-212.719h203.844l-50.844 213.406c36.422 18.875 61.188 57.824 61.188 101.656 0 62.497-50.551 113.188-113.188 113.188z" />
<glyph unicode="&#xe041;" d="M547.844 1024c-38.027 0.466-78.592-11.233-120.219-36.125-111.917-66.981-136.133-172.306-77.5-280.375h-199.094c-39.132 0-71.031-36.854-71.031-82.313v-542.875c0-45.458 31.899-82.313 71.031-82.313h730.906c39.067 0 70.969 36.854 70.969 82.313v542.875c-0.065 45.393-31.965 82.313-71.031 82.313h-410.5l-23.469 39.125c-31.436 52.632-43.618 112.059 30.406 156.344s120.692 5.286 152.063-47.281l25.25-42 89.5 53.469-26.813 44.688c-42.993 71.906-102.681 111.326-170.469 112.156zM177.844 631.969h213.719l1.688-2.781 4.906 2.781h456.781c7.566 0 16.25-11.389 16.25-26.781v-503h0.063c0-15.392-8.684-26.781-16.25-26.781h-677.156c-7.696 0-16.375 11.389-16.375 26.781v503c0 15.392 8.679 26.781 16.375 26.781zM518.344 541.844c-58.437 0-105.531-47.29-105.531-105.531 0-40.762 23.148-77.268 57.063-94.813l-47.469-199.125h190.125l-47.281 198.406c34.632 17.348 58.5 54.182 58.5 95.531 0 58.241-47.23 105.531-105.406 105.531z" />
<glyph unicode="&#xe042;" d="M701.375 1024c-81.653 0.010-163.354-31.131-225.656-93.438h0.5c-114.188-114.186-123.684-293.367-28.563-418.469l-186.563-187.125-92.844 93.344c-20.626 20.768-48.043 26.854-61.156 13.813s-7.016-40.514 13.469-61.281l93.125-93.5-36.438-36.656-71.094 71.375c-16.373 16.515-39.388 20.291-51.438 8.313-11.908-11.837-8.373-35.017 8-51.531l71.219-71.531-39.25-39.344-42.469 42.813c-11.837 11.837-31.115 11.844-43.094-0.219-11.979-11.908-12.13-31.053-0.719-43.031l42.75-42.813-25.094-25.094c-12.12-12.404-3.411-41.081 19.625-64.188v-0.094c23.249-23.39 51.755-32.035 63.875-19.844l425.344 426.906c123.044-75.132 285.649-59.537 391.969 46.781 1.901 1.772 3.83 3.836 5.531 5.75 47.631 45.504 80.448 107.319 88.313 177.844 3.473 30.974 1.773 61.3-3.969 90.219-9.991 64.996-39.754 127.53-89.938 177.5-62.162 62.338-143.785 93.492-225.438 93.5zM787.781 911.906c31.027 0 62.045-11.853 85.719-35.563 47.419-47.276 47.419-124.113 0-171.531-47.348-47.418-124.121-47.42-171.469 0.063-47.419 47.276-47.419 124.121 0 171.469 23.674 23.709 54.723 35.563 85.75 35.563z" />
<glyph unicode="&#xe043;" d="M951.688 1008.531c-20.895 0.066-41.642-8.83-56-26.125l-212.625-255.969c-25.654-30.746-21.468-76.502 9.406-102.156 30.81-25.525 76.377-21.342 102.031 9.469l212.688 255.969c25.654 30.81 21.468 76.504-9.406 102.094-13.508 11.195-29.842 16.667-46.094 16.719zM469.063 985.25c-46.705 0-84.563-37.857-84.563-84.563s37.857-84.594 84.563-84.594c46.705 0 84.563 37.889 84.563 84.594s-37.857 84.563-84.563 84.563zM226.688 905.969c-46.741 0-84.625-37.915-84.625-84.656s37.884-84.625 84.625-84.625c46.741 0 84.625 37.884 84.625 84.625s-37.884 84.656-84.625 84.656zM84.563 705.313c-46.705 0-84.563-37.857-84.563-84.563s37.857-84.594 84.563-84.594c46.705 0 84.563 37.889 84.563 84.594s-37.857 84.563-84.563 84.563zM629.156 613.969c-39.301 0-71.156-31.856-71.156-71.156s31.856-71.156 71.156-71.156c39.301 0 71.156 31.856 71.156 71.156s-31.856 71.156-71.156 71.156zM514.281 477.156c-27.096-0.128-53.805-12.602-71.219-36.063-29.199-39.576-5.969-160.875-5.969-160.875s119.801 15.457 149 54.969c29.199 39.447 20.947 95.205-18.5 124.469-16.052 11.888-34.773 17.588-53.313 17.5zM82.375 469.188c-45.696-1.158-82.375-38.587-82.375-84.563 0-46.705 37.857-84.563 84.563-84.563s84.563 37.857 84.563 84.563c0 46.705-37.857 84.563-84.563 84.563-0.73 0-1.462 0.018-2.188 0zM228.75 264.344c-46.705 0-84.563-37.857-84.563-84.563s37.857-84.563 84.563-84.563c46.705 0 84.563 37.857 84.563 84.563s-37.857 84.563-84.563 84.563zM692.531 260.281c-45.696-1.158-82.375-38.587-82.375-84.563 0-46.705 37.857-84.563 84.563-84.563s84.563 37.857 84.563 84.563c0 46.705-37.857 84.563-84.563 84.563-0.73 0-1.462 0.018-2.188 0zM458.5 189.25c-45.731-1.159-82.469-38.615-82.469-84.625 0-46.741 37.915-84.625 84.656-84.625s84.625 37.884 84.625 84.625c0 46.741-37.884 84.625-84.625 84.625-0.73 0-1.462 0.018-2.188 0z" />
<glyph unicode="&#xe044;" d="M160 630.906c-71.377 0-129.219-57.332-129.219-128.063s57.842-128.063 129.219-128.063c71.377 0 129.25 57.332 129.25 128.063s-57.873 128.063-129.25 128.063zM516.281 630.906c-71.329 0-129.313-57.474-129.313-128.063 0-70.651 58.045-128.063 129.313-128.063 71.203 0 129.344 57.412 129.344 128.063 0 70.589-58.141 128.063-129.344 128.063zM863.938 630.906c-71.267 0-129.313-57.474-129.313-128.063 0-70.651 58.107-128.063 129.313-128.063 71.203 0 129.281 57.412 129.281 128.063 0 70.589-58.017 128.063-129.281 128.063z" />
<glyph unicode="&#xe045;" d="M516.781 1024c-170.256 0-321.142-82.371-415.344-208.625-7.047-5.614-12.535-13.779-16.844-23.375-53.27-80.492-84.594-176.663-84.594-279.938 0-282.472 231.828-512.063 516.781-512.063 284.82 0 516.75 229.591 516.75 512.063 0 282.276-231.93 511.938-516.75 511.938zM516.25 942.656c62.994 0 122.662-13.576 176.781-37.469-4.047 0.119-7.505 0.406-12.531 0.406-44.261 0-105.173-7.267-107.719-7.594l-4.219-0.5-1.969-3.781c-0.772-1.436-18.266-35.194 1.438-54.844 8.291-8.291 14.467-10.072 18.906-11.313 4.113-1.175 6.736-1.876 12.938-12.125 12.077-19.78 42.171-23.969 65.281-23.969 8.226 0 15.134 0.603 19.313 1.125 1.691 0.208 3.61 0.517 5.438 0.844 3.329 0.522 6.767 1.094 10.031 1.094 4.243 0 10.141 0.003 11.969-15.469 1.039-8.487-2.090-13.558-4.844-18.063-2.493-4.047-5.603-9.153-3.188-15.094 2.938-7.181 12.143-10.575 31.531-15.406 16.448-4.113 27.085-2.023 33.156 6.594 2.878-3.982 6.535-9.27 10.844-15.406 15.472-22.261 7.696-29.371-1.313-37.531-5.353-4.896-11.488-10.448-10.313-19 1.187-8.944 10.105-16.769 31.844-28.063 23.567-12.142 47.026-18.611 69.156-21.875-27.353-5.94-46.877-5.36-55.625 1.625l-1.438 3.906c-3.591 8.421-13.72 11.371-21.031 12.938-9.466 1.958-23.751 1.509-44.25-1.625-28.134-6.463-47.526-27.96-57.906-64.844l-5.344-34.375v-1.063l1.25-12.656c0.772-9.335 4.557-18.738 11.281-27.813 7.181-9.923 17.625-29.906 30.094-29.906 4.57 0 10.97-13.688 18.344-13.688h18.656v-10.531c0-3.068 23.384-7.161 26.844-12.188 4.048-6.137 12.219-8.751 12.219-9.469s3.972-2.823 1.563-7.719c-9.27-23.11-7.063-24.598-7.063-26.688 0-4.766 2.882-10.524 7.25-21.688 14.558-30.813 25.985-42.219 37.344-42.219 56.795 0 73.659 31.662 77.25 59.406 3.199 0.849 7.564 2.858 12.656 6.188-55.424-174.235-220.078-301.125-414.094-301.125v-0.031c-239.974 0-435.188 193.106-435.188 430.469 0 77.75 21.28 150.595 57.969 213.656 16.255-3.068 30.506-9.638 36.969-18.125 2.878-3.656 3.851-7.134 2.938-10.594-8.226-32.118 23.491-71.401 51.563-106 12.795-15.863 24.932-30.875 28.719-40.406 3.199-7.899 9.942-10.588 20.844-10 1.365 0.059 2.933 0.219 4.5 0.219 5.875 0 18.070-0.021 29.688-32.531 2.552-11.489 10.643-17.281 24.156-17.281 3.525 0 7.328 0.327 11.375 0.719 6.332 0.588 13.037 1.247 19.5 0.125 15.602-2.807 26.715-13.12 34.875-20.563 2.878-2.677 5.267-4.922 7.813-6.75-1.751-1.893-4.437-4.351-6.656-6.375-11.881-10.902-29.683-27.44-28.313-52.313 1.365-23.501 19.643-48.093 55.875-75.25-1.039-16.451-1.424-32.442-1.75-46.281-0.653-17.626-1.059-37.558-2.75-41.344-9.923-15.668-8.468-27.788-4.813-35.688-6.071-5.222-8.806-13.469-7.5-23.719 2.671-21.086 21.782-46.531 41.563-46.531 4.178 0 8.185 1.187 11.906 3.406 11.555 7.050 11.23 18.21 10.969 27.219 0 7.116-0.675 13.821 4.156 20.219l2.688 3.719-1.75 4.188c-6.985 16.973 35.107 76.191 94.25 120.844l-13.188 2.469v4.125c0 0.326 16.319 33.493 42.563 54.188 5.745 4.504 15.941 11.211 13.656 18-4.961 14.492-25.594 27.481-47.594 25-4.439 15.733-18.532 45.237-75.781 40.406-19.193-1.828-32.248 8.562-35.969 11.5-4.439 8.16-23.255 40.28-47.344 45.438-0.653 6.398-2.219 17.222-14.813 23.75-5.157 2.742-12.2 4.303-19.969 6-6.855 1.501-19.59 4.245-21.875 5.094 1.513 1.436 8.53 2.95 13.688 4.125 10.249 2.22 22.859 4.973 33.5 12.219 0.92-0.979 1.913-2.214 2.625-3.063 4.309-5.223 8.75-10.656 15.344-10.656 2.671 0 5.195 0.987 7.219 2.75 6.071 5.027 5.304 11.626 4.781 16-0.653 5.484-1.311 11.225 9.656 20.625 1.424 1.175 4.896 4.612 9.531 9.313 9.335 9.27 23.312 23.314 35.781 33.563 1.365 1.11 5.221 1.364 8.094 1.625 5.418 0.392 13.65 1.044 16.719 8.813 2.226 5.94 2.166 10.918 0 15.031-3.264 6.006-9.672 7.518-14.438 8.563-1.424 0.326-4.031 0.897-4.031 0.25 0 0-0.022 0.991 0.75 3.406 8.226-0.059 25.717-5.109 39.75-9.156 14.558-4.178 23.135-6.531 28.031-6.531l4.938 0.406 2.344 2.281c2.938 2.807 4.062 6.472 3.344 10.063-1.573 7.246-9.597 9.915-19.781 13.375-2.493 0.849-6.278 2.166-9.281 3.406 3.329 2.611 4.581 6.842 3.406 11.281-4.896 17.365-70.963 67.813-99.688 67.813-2.166 0-4.169-0.265-6.063-0.781-18.018-4.961-16.974-26.752-16.125-44.313 0.653-6.724 0.91-17.953-1.375-19.781-24.22 5.027-55.428 31.651-66.656 41.313 3.46 1.371 8.742 2.83 12.594 3.875 12.077 3.264 24.505 6.658 30.25 14.688 6.593 9.335 8.267 19.77 4.938 29.563-2.938 8.617-9.578 15.462-17.281 17.813-20.107 6.463-48.51 1.043-71.75-4.375-15.599-3.721-30.473-6.924-38.438-5.031-17.822 4.504-23.121 8.64-28.344 12.688-7.442 5.875-14.829 10.046-33.5 13.375 77.686 71.418 181.413 115.469 295.656 115.469z" />
<glyph unicode="&#xe046;" d="M512.094 1023.938c-282.384 0-512.094-229.715-512.094-511.969 0-282.318 229.71-511.969 512.094-511.969 104.37 0 204.464 30.841 289.406 89.125 22.526 15.491 28.274 46.286 12.719 68.813-15.362 22.526-46.19 28.528-68.781 12.844-68.354-46.924-149.112-71.781-233.344-71.781-227.714 0-412.969 185.322-412.969 412.906 0 227.714 185.255 412.875 412.969 412.875 227.649 0 412.844-185.161 412.844-412.875v-40.281c0-50.28-41.003-91.188-91.281-91.188-50.281 0-91.125 40.843-91.125 91.188v40.281c0 127.153-103.415 230.5-230.438 230.5s-230.5-103.412-230.5-230.5c0-127.088 103.477-230.5 230.5-230.5 67.644 0 127.944 29.836 170.156 76.438 34.79-46.085 89.44-76.438 151.469-76.438 104.948 0 190.281 85.398 190.281 190.219v40.281c0 282.318-229.652 512.031-511.906 512.031zM512.094 643.438c72.485 0 131.406-58.985 131.406-131.469s-58.922-131.406-131.406-131.406c-72.485 0-131.469 58.923-131.469 131.406s58.984 131.469 131.469 131.469z" />
<glyph unicode="&#xe047;" d="M71.156 941.688c-39.239 0-71.156-38.919-71.156-86.75v-674.25c0-47.767 31.981-86.688 71.156-86.688h881.688c39.175 0 71.156 38.921 71.156 86.688v674.25c0.064 47.831-31.919 86.75-71.094 86.75h-881.75zM81.031 861.531h862c0.513-1.667 0.875-3.901 0.875-6.594v-674.25c0-2.693-0.362-4.8-0.875-6.531h-862c-0.513 1.667-0.875 3.838-0.875 6.531v674.25c0 2.693 0.362 4.863 0.875 6.594zM172.531 766.313c-3.334 0-6.031-4.274-6.031-9.531v-92.906c0-5.258 2.697-9.563 6.031-9.563h98.813c3.334 0 6.031 4.241 6.031 9.563v92.906c0 5.258-2.697 9.531-6.031 9.531h-98.813zM744 766.313c-3.27 0-5.969-4.274-5.969-9.531v-92.906c0-5.258 2.699-9.563 5.969-9.563h98.875c3.334 0 6.031 4.241 6.031 9.563v92.906c0 5.258-2.697 9.531-6.031 9.531h-98.875zM454.094 667.094c-10.513-0.353-17.594-9.417-17.594-25.406v-242.25c0-24.364 16.402-32.701 36.406-18.531l161.125 113.875c20.068 14.17 20.068 37.329 0 51.563l-161.125 113.875c-6.876 4.871-13.305 7.060-18.813 6.875zM172.531 579.5c-3.334 0-6.031-4.241-6.031-9.563v-92.844c0-5.258 2.697-9.5 6.031-9.5h98.813c3.334 0 6.031 4.178 6.031 9.5v92.844c0 5.258-2.697 9.563-6.031 9.563h-98.813zM744 579.5c-3.27 0-5.969-4.241-5.969-9.563v-92.844c0-5.258 2.699-9.5 5.969-9.5h98.875c3.334 0 6.031 4.178 6.031 9.5v92.844c0 5.258-2.697 9.563-6.031 9.563h-98.875zM172.531 391.75c-3.334 0-6.031-4.303-6.031-9.625v-93.031c0-5.065 2.697-9.344 6.031-9.344h98.813c3.334 0 6.031 4.214 6.031 9.344v93.031c0 5.322-2.697 9.625-6.031 9.625h-98.813zM744 391.75c-3.27 0-5.969-4.303-5.969-9.625v-93.031c0-5.065 2.699-9.344 5.969-9.344h98.875c3.334 0 6.031 4.214 6.031 9.344v93.031c0 5.322-2.697 9.625-6.031 9.625h-98.875z" />
<glyph unicode="&#xe048;" d="M225.031 949.5c-32.834 0-59.656-32.639-59.656-72.719v-565.281c0-40.016 26.823-72.656 59.656-72.656h739.25c32.898 0 59.719 32.64 59.719 72.656v565.281c0 40.080-26.821 72.719-59.719 72.719h-739.25zM245.813 869.344h698.031l-0.25-550.344h-698.031l0.25 550.344zM323.281 790.156c-2.693 0-4.875-3.455-4.875-7.688v-74.719c0-4.232 2.182-7.688 4.875-7.688h79.438c2.693 0 4.813 3.455 4.813 7.688v74.719c0 4.232-2.119 7.688-4.813 7.688h-79.438zM782.875 790.156c-2.629 0-4.813-3.455-4.813-7.688v-74.719c0-4.232 2.119-7.688 4.813-7.688h79.469c2.693 0 4.875 3.455 4.875 7.688v74.719c0 4.232-2.182 7.688-4.875 7.688h-79.469zM49.438 775.094c-27.19 0-49.438-22.311-49.438-49.438v-596.219c0-27.255 22.247-49.438 49.438-49.438h799.375c27.19 0 49.438 22.247 49.438 49.438v62.906h-80.156v-32.25h-737.938v534.844h32.25v80.156h-62.969zM549.688 710.344c-8.461-0.284-14.156-7.571-14.156-20.406v-194.906c0-19.559 13.216-26.29 29.313-14.875l129.594 91.594c16.096 11.479 16.096 30.056 0 41.406l-129.594 91.656c-5.533 3.924-10.725 5.68-15.156 5.531zM323.281 639.969c-2.693 0-4.875-3.453-4.875-7.75v-74.656c0-4.297 2.182-7.688 4.875-7.688h79.438c2.693 0 4.813 3.455 4.813 7.688v74.656c0 4.297-2.119 7.75-4.813 7.75h-79.438zM782.875 639.969c-2.629 0-4.813-3.453-4.813-7.75v-74.656c0-4.297 2.119-7.688 4.813-7.688h79.469c2.693 0 4.875 3.455 4.875 7.688v74.656c0 4.297-2.182 7.75-4.875 7.75h-79.469zM323.281 488.875c-2.693 0-4.875-3.391-4.875-7.688v-74.844c0-4.104 2.182-7.5 4.875-7.5h79.438c2.693 0 4.813 3.396 4.813 7.5v74.844c0 4.297-2.119 7.688-4.813 7.688h-79.438zM782.875 488.875c-2.629 0-4.813-3.391-4.813-7.688v-74.844c0-4.104 2.119-7.5 4.813-7.5h79.469c2.693 0 4.875 3.396 4.875 7.5v74.844c0 4.297-2.182 7.688-4.875 7.688h-79.469z" />
<glyph unicode="&#xe049;" d="M123.906 909.25c-10.246 0-18.625-3.224-18.625-7.219v-32.156h-49.938c-30.544 0-55.344-28.48-55.344-63.406v-619.125c0-34.861 24.864-63.344 55.344-63.344h913.313c30.48 0 55.344 28.482 55.344 63.344v619.125c-0.064 34.926-24.927 63.406-55.406 63.406h-520.688v32.156c0 3.995-8.444 7.219-18.625 7.219h-305.375zM185.781 828.719h181.531v-39.375h576v-584.844h-862.906v584.844h105.375v39.375zM202.531 741.313c-4.124 0-7.531-4.191-7.531-9.281v-89.313c0-5.155 3.407-9.125 7.531-9.125h124.188c4.060 0 7.469 4.034 7.469 9.125v89.313c0 5.155-3.409 9.281-7.469 9.281h-124.188zM655.938 680.938c-115.281 0-209.063-92.91-209.063-207.031 0-114.25 93.781-207.094 209.063-207.094 115.152 0 208.971 92.843 208.906 207.094 0 114.186-93.754 207.031-208.906 207.031z" />
<glyph unicode="&#xe050;" d="M46.594 870.469c-25.759 0-46.594-26.965-46.594-60.156v-587.594c0-33.192 20.835-60.219 46.594-60.219h768.188c25.759 0 46.656 27.027 46.656 60.219v103.375l96.75-68.313c11.918-8.458 23.137-12.438 32.813-12.438 19.672 0 33 16.526 33 45.938v438.219c0 29.475-13.328 46.031-33 46.031-9.676 0-20.894-3.979-32.813-12.438l-96.75-68.313v115.531c0 33.191-20.897 60.156-46.656 60.156h-768.188zM80.094 790.313h701.25v-95.531c0-29.923 16.658-57.349 43.25-71.125 11.598-6.023 24.221-8.969 36.844-8.969 16.212 0 32.411 4.917 46.188 14.656l36.281 25.594v-289.063l-36.281 25.563c-13.777 9.739-29.912 14.688-46.188 14.688-12.623 0-25.246-2.946-36.844-8.969-26.592-13.777-43.25-41.201-43.25-71.125v-83.5h-701.25v547.781z" />
<glyph unicode="&#xe051;" d="M69.406 935.563c-38.446-1.188-69.406-39.558-69.406-86.625v-674.281c0-47.749 31.927-86.656 71.219-86.656h881.625c39.357 0 71.156 38.907 71.156 86.656v674.281c0 47.814-31.864 86.625-71.156 86.625h-881.625c-0.614 0-1.202 0.019-1.813 0zM104.469 871.188h815.125c17.89 0 33.031-21.864 33.031-47.625v-623.469c0-25.761-15.142-47.563-33.031-47.563h-815.125c-17.89 0-33.094 21.801-33.094 47.563v623.469c0 25.761 15.204 47.625 33.094 47.625zM389.656 735.875c-40.060 0-72.531-32.179-72.531-71.844s32.472-71.813 72.531-71.813c40.060 0 72.531 32.148 72.531 71.813s-32.472 71.844-72.531 71.844zM672.75 627.438c-149.423 0.042-122.311-177.367-195.313-181.594-84.959-5.074-105.588 93.425-214.813 74.625-111.891-19.256-125.219-233.875-125.219-233.875l752.063-1.156c0 0 26.153 333.257-209.469 341.844-2.462 0.091-4.878 0.156-7.25 0.156z" />
<glyph unicode="&#xe052;" d="M225.031 949.5c-32.834 0-59.656-32.639-59.656-72.719v-565.281c0-40.016 26.823-72.656 59.656-72.656h739.25c32.898 0 59.719 32.64 59.719 72.656v565.281c0 40.080-26.821 72.719-59.719 72.719h-739.25zM245.813 869.344h698.031l-0.25-550.344h-698.063l0.281 550.344zM49.438 775.094c-27.19 0-49.438-22.311-49.438-49.438v-596.219c0-27.255 22.247-49.438 49.438-49.438h799.375c27.19 0 49.438 22.247 49.438 49.438v62.906h-80.156v-32.25h-737.938v534.844h32.25v80.156h-62.969zM500.406 754.313c-29.113 0-52.719-23.389-52.719-52.219s23.606-52.188 52.719-52.188c29.113 0 52.688 23.358 52.688 52.188s-23.575 52.219-52.688 52.219zM706.156 675.469c-108.678 0.009-88.944-128.907-142.031-132-61.756-3.719-76.763 67.909-156.219 54.25-81.313-14.044-90.969-171.313-90.969-171.313l546.813 0.406c0 0 18.974 242.278-152.313 248.563-1.791 0.066-3.556 0.094-5.281 0.094z" />
<glyph unicode="&#xe053;" d="M96 1024c-35.2 0-64-28.8-64-64v-896c0-35.2 28.8-64 64-64h832c35.198 0 64 28.8 64 64v658.063c0 35.2-20.599 84.080-45.813 108.656l-149.063 148.531c-25.152 24.64-74.643 44.75-109.844 44.75h-591.281zM111.938 944.063l575.344-0.063c14.4 0 43.648-11.904 53.313-21.313l149.719-149.188c9.728-9.472 21.625-37.807 21.625-51.375v-642.063h-800v864zM678.313 883.344c-11.041-0.658-18.219-12.131-18.219-33.031v-72.406c0-35.2 28.8-64 64-64h72.375c35.201 0 43.646 21.010 18.75 45.906l-109.875 109.25c-10.114 10.114-19.477 14.731-27.031 14.281zM260.531 583.875c-20.096 0-36.469-17.981-36.469-40.125 0-22.016 16.372-39.875 36.469-39.875h503c20.224 0 36.469 17.923 36.469 39.875 0 22.144-16.244 40.125-36.469 40.125h-503zM260.531 432.375c-20.096 0-36.469-17.981-36.469-40.125 0-22.016 16.372-39.875 36.469-39.875h503c20.224 0 36.469 17.923 36.469 39.875 0 22.144-16.244 40.125-36.469 40.125h-503zM260.531 285.75c-20.096 0-36.469-17.981-36.469-40.125 0-22.016 16.372-39.875 36.469-39.875h503c20.224 0 36.469 17.923 36.469 39.875 0 22.144-16.244 40.125-36.469 40.125h-503z" />
<glyph unicode="&#xe054;" d="M552.438 1024l-89.375-0.313c-8.565 0-16.886-3.633-22.469-9.406-6.217-6.090-9.563-14.188-9.563-22.625v-72.094h-48.094c-16.939 0-30.594-12.736-30.594-28.406v-3.094h-153.125c-49.992 0-87.75-50.26-87.75-117v-654c0-66.676 37.758-117.063 87.75-117.063h619.875c49.926 0 87.625 50.386 87.625 117.063v654c0 66.74-37.824 117-87.75 117h-156.25v3.094c0 15.924-13.467 28.406-30.594 28.406h-48.344l0.656 72.594c0 8.691-3.508 16.758-9.281 22.531-5.964 6.090-13.964 9.313-22.719 9.313zM507.469 979.719c14.972 0.115 27.156-11.993 27.156-27.219 0-14.972-12.37-27.28-27.469-27.344-15.099-0.115-27.22 11.995-27.156 27.094 0 15.162 12.37 27.469 27.469 27.469zM200.938 808.75h140.813v-54.875h335.813v54.875h138.75c3.68-3.743 10.656-16.308 10.656-37.688v-654h-0.063c0-21.38-7.040-34.007-10.656-37.75h-615.25c-3.68 3.679-10.719 16.307-10.719 37.75v654c0 21.443 7.040 34.008 10.656 37.688zM692.656 640.813l-348.031-0.125c-14.845 0-26.906-15.163-26.906-33.688 0.19-24.108 18.78-32.219 27.281-32.219v-0.031h347.969c14.592 0.063 26.844 15.625 26.844 34.594 0 8.755-2.861 16.82-8 22.656-5.075 5.646-11.924 8.813-19.156 8.813zM344.625 510.313c-14.592 0-26.906-15.54-26.906-33.875 0.063-18.017 12.055-32.156 27.281-32.156l347.844 0.125c14.909 0.19 26.969 15.974 26.969 34.563 0 8.755-2.861 16.82-8 22.656-5.012 5.583-11.797 8.688-19.156 8.688h-348.031zM344.625 384.969c-14.592 0-26.906-15.541-26.906-33.875 0.063-18.017 12.055-32.188 27.281-32.188v0.031l347.844 0.094c14.909 0.19 26.969 16.006 26.969 34.594 0 8.755-2.861 16.82-8 22.656-5.012 5.583-11.797 8.688-19.156 8.688h-348.031zM692.719 249.125l-95.906-0.125c-14.909 0-27.031-15.163-27.031-33.688 0.19-18.842 12.121-31.719 27.156-31.719h0.188l95.906 0.25c14.592 0.063 26.844 15.542 26.844 33.813 0 8.818-2.861 16.883-8 22.656-5.075 5.646-11.924 8.813-19.156 8.813z" />
<glyph unicode="&#xe055;" d="M265.656 1024c-28.732 0-52.219-23.487-52.219-52.219v-731.469c0-28.732 23.487-52.219 52.219-52.219h679.219c28.732 0 52.25 23.487 52.25 52.219v537.219c0 28.732-16.878 68.638-37.438 88.75l-121.625 121.25c-20.559 20.048-60.957 36.469-89.625 36.469h-482.781zM293.313 944.188h455.125c8.492-0.203 27.888-8.047 33.313-13.219l122.219-121.813c5.491-5.683 13.151-23.834 13.406-31.688v-509.625h-624.063v676.344zM741.156 909.156c-9.023-0.541-14.875-9.909-14.875-26.969v-59.063c0-28.668 23.49-52.219 52.219-52.219h59.063c28.732 0 35.615 17.102 15.375 37.406l-89.688 89.219c-8.249 8.248-15.92 11.995-22.094 11.625zM79.219 788.031c-27.072 0-49.219-22.242-49.219-49.25v-689.563c0-27.136 22.147-49.219 49.219-49.219h640.281c27.072 0 49.219 22.147 49.219 49.219v62.656h-79.813v-32.125h-579.094v628.469h32.125v79.813h-62.719zM399.938 664.719c-16.473 0-29.813-14.681-29.813-32.75 0-17.941 13.403-32.563 29.813-32.563h410.656c16.537 0 29.781 14.621 29.781 32.563 0 18.069-13.308 32.75-29.781 32.75h-410.656zM399.938 541.063c-16.473 0-29.813-14.681-29.813-32.75 0-17.941 13.403-32.563 29.813-32.563h410.656c16.537 0 29.781 14.621 29.781 32.563 0 18.069-13.308 32.75-29.781 32.75h-410.656zM399.938 421.406c-16.473 0-29.813-14.681-29.813-32.75 0-17.942 13.403-32.563 29.813-32.563h410.656c16.537 0 29.781 14.557 29.781 32.563 0 18.069-13.308 32.75-29.781 32.75h-410.656z" />
<glyph unicode="&#xe056;" d="M324.938 1024c-27.57 0-50-22.56-50-49.938v-334.625c8.015 0.513 15.951 1.219 24.094 1.219 19.107 0 37.758-1.926 56.031-4.875v308.125h431.125c7.437-0.385 24.507-7.235 29.188-11.531l116.75-116.313c4.68-5.065 11.398-20.894 11.719-27.563v-483.25h-295c0.128-3.911 0.656-7.681 0.656-11.656 0-23.402-2.451-46.349-6.875-68.469h331.5c27.442 0 49.875 22.56 49.875 49.938v513.438c-0.064 27.314-16.16 65.517-35.844 84.688l-116.25 115.875c-19.684 19.171-58.215 34.938-85.656 34.938h-461.313zM764.375 896.156c-9.401 0.396-15.625-8.63-15.625-25.781v-56.469c0-27.442 22.433-49.969 49.875-49.969h56.5c27.442 0 34.051 16.417 14.688 35.844l-85.75 85.219c-7.285 7.285-14.047 10.918-19.688 11.156zM297.438 589.281c-164.009 0-297.438-132.187-297.438-294.594 0-162.535 133.428-294.688 297.438-294.688 163.945 0 297.438 132.153 297.438 294.688-0.064 162.406-133.556 294.594-297.438 294.594zM297.438 509.156c119.769 0 217.281-96.174 217.281-214.469s-97.512-214.531-217.281-214.531c-119.769 0-217.281 96.237-217.281 214.531 0 118.23 97.512 214.469 217.281 214.469zM297.531 451.344c-9.207-0.249-18.342-3.342-24.594-9.594l-118.219-117.594c-10.643-10.708-13.025-23.319-7.063-37.938 2.116-4.681 4.944-8.727 8.406-12.125 7.758-7.309 16.356-10.906 25.781-10.906 9.81 0.449 17.932 3.597 24.344 9.688l57.188 59.75v-168.375c0.449-6.476 2.767-12.246 7.063-17.375 7.245-6.924 16.292-10.313 27-10.313 11.092 0.449 20.139 3.773 27 10.313 5.129 4.296 7.688 10.002 7.688 17.375v168.375l56.625-57.25c6.861-6.412 14.805-9.625 23.781-9.625 10.323 0.385 19.099 4.046 26.344 10.906 11.541 11.541 14.307 24.633 8.344 39.188-1.282 3.847-3.664 7.508-7.063 10.906l-115.156 115c-6.506 6.506-17.034 9.875-27.469 9.594z" />
<glyph unicode="&#xe057;" d="M325 1023.938c-27.568 0-50.031-22.562-50.031-49.938v-334.594c8.014 0.513 15.983 1.188 24.125 1.188 19.105 0 37.759-1.895 56.031-4.844v308.125h431.094c7.437-0.385 24.476-7.267 29.156-11.563l116.75-116.281c4.68-5.065 11.429-20.926 11.75-27.594v-483.188h-295c0.128-3.911 0.656-7.713 0.656-11.688 0-23.401-2.451-46.35-6.875-68.469h331.469c27.44 0 49.875 22.562 49.875 49.938v513.406c-0.128 27.312-16.225 65.549-35.844 84.719l-116.219 115.844c-19.682 19.169-58.216 34.938-85.656 34.938h-461.281zM764.313 896.094c-9.401 0.396-15.625-8.631-15.625-25.781v-56.469c0-27.44 22.466-49.938 49.906-49.938h56.469c27.44 0 34.114 16.418 14.688 35.844l-85.719 85.188c-7.285 7.285-14.078 10.918-19.719 11.156zM297.406 589.25c-163.999 0-297.406-132.198-297.406-294.594 0-162.524 133.407-294.656 297.406-294.656 163.935 0 297.438 132.132 297.438 294.656 0 162.396-133.503 294.594-297.438 294.594zM297.406 509.125c119.762 0 217.281-96.182 217.281-214.469s-97.52-214.531-217.281-214.531c-119.762 0-217.281 96.244-217.281 214.531 0 118.223 97.52 214.469 217.281 214.469zM296.656 452.688c-11.092-0.449-20.14-3.773-27-10.313-5.129-4.231-7.688-10.004-7.688-17.313v-168.406l-56.625 57.25c-6.86 6.475-14.805 9.594-23.781 9.594-10.322-0.385-19.099-4.015-26.344-10.875-11.537-11.54-14.306-24.634-8.344-39.188 1.282-3.847 3.6-7.508 7.063-10.906l115.156-115c12.246-12.245 38.696-13.335 52.031 0l118.25 117.563c10.643 10.707 12.994 23.415 7.031 37.969-2.116 4.744-4.946 8.791-8.344 12.125-7.758 7.309-16.325 10.875-25.75 10.875-9.809-0.385-17.964-3.566-24.375-9.656l-57.25-59.75v168.406c-0.449 6.411-2.767 12.183-7.063 17.313-7.245 6.924-16.262 10.313-26.969 10.313z" />
<glyph unicode="&#xe058;" d="M374.094 1024c-19.77-0.161-38.433-12.531-45.469-32.094l-68.906-191.469h83.938l48.969 136 537-193.188-122.5-340.563v-233.313l207.156 575.719c9.097 25.144-4.043 53.121-29.25 62.281l-594.281 213.781c-1.895 0.758-3.856 1.34-5.625 1.656-3.672 0.839-7.37 1.217-11.031 1.188zM46.313 770.531c-22.175 0-40.313-16.473-40.313-36.563v-663.906c0-39.99 27.112-70.063 60.469-70.063h650.5c33.357 0 60.406 30.136 60.406 70.063v545.563c0 39.863-27.049 58.188-60.406 58.188h-310.313v60.156c0 20.469-17.632 36.563-40.375 36.563h-319.969zM85.031 691.563h242.594v-96.719h370.719v-515.875h-613.313v612.594z" />
<glyph unicode="&#xe059;" d="M53.469 1022.969c-29.391 0-53.469-21.857-53.469-48.5v-881.438c0-53.095 35.975-93.031 80.25-93.031h863.625c44.214 0 80.125 39.937 80.125 93.031v724.344c0 52.967-35.911 77.25-80.125 77.25h-411.969v79.844c0 27.154-23.439 48.5-53.594 48.5h-424.844zM79.875 943.125h372.406v-128.375h491.844v-721.719c0-6.964-1.91-11.24-3.188-13.156h-857.813c-1.278 1.853-3.25 6.128-3.25 13.156v850.094z" />
<glyph unicode="&#xe060;" d="M338.188 1022.188c-13.397 0-25.875-14.34-25.875-32.031v-32.063h-143.844c-26.794 0-48.469-28.71-48.469-64.094s21.675-64.094 48.469-64.094h678.75c26.858 0 48.469 28.71 48.469 64.094s-21.675 64.094-48.469 64.094h-150.313v32.063c0 17.692-5.978 32.031-19.375 32.031h-339.344zM185.063 764.719c-36.409 0-65.063-38.859-65.063-88.344v-589.906c0-49.357 28.653-88.281 65.063-88.281h642.156c36.409 0 65 38.924 65 88.281v589.906c0 49.485-28.591 88.344-65 88.344h-642.156zM200.969 684.594h610.344c0.641-2.244 0.781-5.014 0.781-8.219v-589.906c0-3.205-0.665-5.913-0.781-8.156h-610.344c-0.641 2.244-0.781 5.015-0.781 8.156v589.906c0 3.205 0.024 5.975 0.781 8.219zM295.563 634.281c-15 0-27.156-12.312-27.156-27.375v-464.406c0-15.128 12.157-27.313 27.156-27.313 14.997 0 27.125 12.185 27.125 27.313v464.406c0 15.063-12.128 27.375-27.125 27.375zM434.094 634.281c-15 0-27.188-12.312-27.188-27.375v-464.406c0-15.128 12.188-27.313 27.188-27.313s27.125 12.185 27.125 27.313v464.406c0 15.063-12.125 27.375-27.125 27.375zM572.563 634.281c-15 0-27.188-12.312-27.188-27.375v-464.406c0-15.128 12.188-27.313 27.188-27.313s27.094 12.185 27.094 27.313v464.406c0 15.063-12.094 27.375-27.094 27.375zM711.063 634.281c-15 0-27.156-12.312-27.156-27.375v-464.406c0-15.128 12.157-27.313 27.156-27.313 14.997 0 27.125 12.185 27.125 27.313v464.406c0 15.063-12.128 27.375-27.125 27.375z" />
<glyph unicode="&#xe061;" d="M411.563 996.531c-226.887 0-411.563-183.279-411.563-408.375 0-225.287 184.676-408.531 411.563-408.531 91.116 0 175.417 29.678 243.719 79.656l253.031-197.75c19.351-15.122 58.314 1.804 87.469 37.75v0.375c29.090 36.266 36.91 78.127 17.688 93.313h0.062l-245.594 191.563c35.049 59.974 54.969 129.426 54.969 203.625 0 225.096-184.454 408.375-411.344 408.375zM413.406 897.594c170.25 0 308.344-138.032 308.344-308.344s-138.030-308.313-308.344-308.313c-170.247 0-308.313 138.001-308.313 308.313 0 170.247 138.066 308.344 308.313 308.344z" />
<glyph unicode="&#xe062;" d="M411.531 980.469c-226.88 0-411.531-183.226-411.531-408.313 0-225.278 184.651-408.531 411.531-408.531 91.109 0 175.448 29.648 243.75 79.625l253-197.719c19.35-15.121 58.315 1.805 87.469 37.75v0.375c29.153 36.265 36.974 78.096 17.688 93.281h0.062l-245.594 191.594c35.048 59.972 54.969 129.429 54.969 203.625 0 225.086-184.463 408.313-411.344 408.313zM413.469 881.563c170.24 0 308.313-138.008 308.313-308.313s-138.073-308.344-308.313-308.344c-170.24 0-308.313 138.039-308.313 308.344 0 170.24 138.073 308.313 308.313 308.313zM417.125 742.531c-22.041 0-39.938-16.413-39.938-36.531v-83.875h-84.063c-20.119 0-36.531-18.018-36.531-40.188 0-22.041 16.412-39.906 36.531-39.906h84.063v-84c0-20.247 17.896-36.531 39.938-36.531 22.169 0 40.156 16.284 40.156 36.531v84h84.125c20.247 0 36.531 17.865 36.531 39.906 0 22.169-16.284 40.188-36.531 40.188h-84.125v83.875c0 20.119-17.987 36.531-40.156 36.531z" />
<glyph unicode="&#xe063;" d="M411.531 996.469c-226.88 0-411.531-183.226-411.531-408.313 0-225.279 184.651-408.531 411.531-408.531 91.109 0 175.448 29.648 243.75 79.625l253-197.719c19.347-15.118 58.315 1.816 87.469 37.75v0.375c29.153 36.265 36.974 78.096 17.688 93.281h0.062l-245.594 191.594c35.048 59.973 54.969 129.428 54.969 203.625 0 225.086-184.463 408.313-411.344 408.313zM413.469 897.563c170.24 0 308.313-138.009 308.313-308.313s-138.073-308.344-308.313-308.344c-170.24 0-308.313 138.040-308.313 308.344 0 170.24 138.073 308.313 308.313 308.313zM288.969 638.125c-20.119 0-36.531-18.018-36.531-40.188 0-22.041 16.412-39.906 36.531-39.906h248.281c20.247 0 36.531 17.865 36.531 39.906 0 22.169-16.284 40.188-36.531 40.188h-248.281z" />
<glyph unicode="&#xe064;" d="M403.844 1024c-30.579-0.223-61.33-9.96-87.469-29.844-64.278-48.881-76.976-140.999-28.094-205.469 1.225-1.475 4.727-7.745 5.625-9.156l89.938-118.375c-2.683-3.4-10.85-10.763-11.813-11.469l-115.656 89.75c0 0.204-9.287 8.441-13.906 11.969-63.954 49.587-156.258 37.987-205.781-25.969-49.523-63.828-37.863-156.132 26.094-205.719 63.829-49.459 156.259-37.861 205.719 26.031 20.015 25.66 29.827 56.128 30.469 86.406l79.094-61.313c2.624-2.117 13.347-2.449 16.875-2l42.031-56.375 337.938-493.313c13.856-20.078 41.051-25.198 61.063-11.406 20.015 13.728 25.2 41.109 11.344 61.188h-0.438v0.375c1.924 0.577-162.926 243.982-230.219 345.594l331.969-238.438c19.758-14.177 47.262-9.695 61.375 10.063 14.241 19.694 9.76 47.006-10.063 61.375l-423.313 304-115.344 87.563c0.642 3.721 1.866 14.115 0 16.938l-56.656 74.563c31.045 0 62.63 9.352 89.188 29.688 64.406 48.945 76.913 141.065 28.031 205.406-28.986 38.279-73.308 58.264-118 57.938zM403.781 967.219c27.362 0.218 54.543-11.982 72.406-35.406 29.83-39.58 22.108-95.979-17.344-126-36.18-27.391-86.667-23.022-117.844 8.219l-0.75 1.094c-0.758 0.834-1.554 1.479-2.313 2.313-1.72 1.668-3.332 3.636-5 5.625-29.83 39.516-22.139 95.982 17.313 125.875 16.001 12.17 34.81 18.132 53.531 18.281zM151.531 725.531c19.452 0.142 39.095-5.985 55.656-18.813 3.4-2.694 15.719-15.844 15.719-15.844 24.569-31.625 25.852-77.118 0-110.219-30.34-39.131-86.744-46.374-125.875-16.031h0.063c-39.324 30.342-46.374 86.835-16.031 126.094 17.505 22.622 43.812 34.617 70.469 34.813zM422.281 625.563c5.207 0.253 10.514-1.773 14.375-6.031 6.672-7.377 6.129-18.86-1.313-25.531-7.505-6.8-18.921-6.096-25.656 1.281-6.669 7.313-6.157 18.796 1.281 25.531 3.256 2.975 7.263 4.553 11.313 4.75z" />
<glyph unicode="&#xe065;" d="M69.344 1024c-27.198 0-49.344-22.273-49.344-49.344v-691.406c0-27.198 22.209-49.344 49.344-49.344h145.469v80h-114.813v630.094h425.5c7.232-0.32 23.8-7.092 28.344-11.188l101.375-101h96.5c-6.528 16.767-15.72 32.695-26.344 43.063l-115 114.625c-19.455 18.943-57.616 34.5-84.75 34.5h-456.281zM518.719 915.438c-8.528-0.515-14.063-9.389-14.063-25.5v-55.813c0-0.832 0.436-1.481 0.5-2.313h107.5l-73.063 72.594c-7.8 7.826-15.040 11.384-20.875 11.031zM313.344 790.031c-27.134 0-49.313-22.209-49.313-49.344v-691.344c0-27.134 22.178-49.344 49.313-49.344h642.031c27.134 0 49.344 22.209 49.344 49.344v507.813c0 27.134-15.952 64.899-35.406 83.906l-114.938 114.594c-19.455 18.815-57.648 34.375-84.719 34.375h-456.313zM343.938 710.031h425.594c7.232-0.32 23.8-7.093 28.344-11.125l115.375-115c4.672-5.056 11.085-20.221 11.469-26.813v-477.156h-580.781v630.094zM196.313 684.438v-0.063c-15.487 0-28.156-13.946-28.156-30.969s12.669-30.719 28.156-30.719h18.563v61.75h-18.563zM762.688 681.5c-8.528-0.51-14.094-9.358-14.094-25.469v-55.875c0-27.134 22.208-49.406 49.406-49.406h55.875c27.134 0 33.668 16.206 14.469 35.469l-84.813 84.281c-7.8 7.8-15.009 11.349-20.844 11zM196.313 567.531v-0.094c-15.487 0-28.156-13.947-28.156-30.906s12.669-30.719 28.156-30.719h18.563v61.719h-18.563zM196.313 454.375v-0.063c-15.487 0-28.156-13.885-28.156-30.844s12.669-30.719 28.156-30.719h18.563v61.625h-18.563zM440.25 450.406c-15.487 0-28.156-13.882-28.156-30.969 0-16.959 12.605-30.719 28.156-30.719h388.156c15.615 0 28.156 13.76 28.156 30.719 0 17.087-12.541 30.969-28.156 30.969h-388.156zM440.25 333.469c-15.487 0-28.156-13.882-28.156-30.969 0-16.959 12.605-30.719 28.156-30.719h388.156c15.615 0 28.156 13.76 28.156 30.719 0 17.087-12.541 30.969-28.156 30.969h-388.156zM440.25 220.281c-15.487 0-28.156-13.819-28.156-30.906 0-16.959 12.605-30.719 28.156-30.719h388.156c15.615 0 28.156 13.824 28.156 30.719 0 17.023-12.541 30.906-28.156 30.906h-388.156z" />
<glyph unicode="&#xe066;" d="M352.344 1024l-70.156-0.25c-6.674 0-13.238-2.798-17.688-7.375-4.894-4.767-7.563-11.138-7.563-17.813v-56.563h-37.75c-13.285 0-24.031-9.981-24.031-22.313v-2.469h-120.25c-39.282 0-68.906-39.499-68.906-91.875v-513.5c0-52.376 29.624-91.938 68.906-91.938h157.063v62.313h-155.531c-2.86 2.86-8.406 12.781-8.406 29.625v513.5c0 16.844 5.546 26.701 8.406 29.625h110.594v-43.094h263.656v43.094h108.938c2.86-2.924 8.406-12.781 8.406-29.625l62.031 0.031c0 52.44-29.562 91.844-68.781 91.844h-122.406v2.469c0 12.522-10.556 22.313-24.031 22.313h-37.969l0.656 56.969c0 6.801-2.661 13.143-7.313 17.656-4.704 4.767-10.947 7.375-17.875 7.375zM316.938 989.219c11.759 0.058 21.313-9.394 21.313-21.344 0-11.823-9.74-21.436-21.563-21.5-11.886-0.058-21.345 9.49-21.281 21.313 0 11.886 9.645 21.531 21.531 21.531zM331.563 784.688c-26.951 0-49-22.049-49-49v-686.688c0-26.951 22.049-49 49-49h637.656c26.951 0 49.031 22.049 49.031 49v504.375c0 26.951-15.833 64.466-35.156 83.344l-114.156 113.844c-19.26 18.688-57.206 34.125-84.156 34.125h-453.219zM361.938 705.219h422.719c7.183-0.318 23.643-7.058 28.156-11.063l114.594-114.219c4.64-5.021 10.994-20.078 11.375-26.625v-473.938h-576.844v625.844zM779 676.906c-0.373 0.009-0.732-0.010-1.094-0.031-8.47-0.507-13.969-9.279-13.969-25.281v-55.5c0-26.951 22.048-49.063 49.063-49.063h55.5c26.951 0 33.413 16.086 14.344 35.219l-84.219 83.687c-7.263 7.263-14.033 10.837-19.625 10.969zM457.688 447.344c-15.382 0-27.969-13.779-27.969-30.75 0-16.844 12.523-30.5 27.969-30.5h385.5c15.446 0 27.969 13.656 27.969 30.5 0 16.971-12.459 30.75-27.969 30.75h-385.5zM457.688 331.219c-15.382 0-27.969-13.779-27.969-30.75 0-16.844 12.523-30.531 27.969-30.531h385.5c15.446 0 27.969 13.687 27.969 30.531 0 16.971-12.459 30.75-27.969 30.75h-385.5zM457.688 218.781c-15.382 0-27.969-13.716-27.969-30.688 0-16.844 12.523-30.531 27.969-30.531h385.5c15.446 0 27.969 13.751 27.969 30.531 0 16.908-12.459 30.688-27.969 30.688h-385.5z" />
<glyph unicode="&#xe067;" d="M833.844 1017.938c-24.679-0.107-46.747-7.795-62.719-23.719l-115.906-115.531 229.188-225.594 115.844 115.219c42.848 42.527 26.093 127.56-37.281 189.844-39.609 39.048-87.994 59.959-129.125 59.781zM624.25 847.844l-519.625-517.531 229.438-225.719 519.438 517.656-229.25 225.594zM76.25 300.563c0 0-67.74-172.742-75.438-207.188-7.633-34.381 38.884-98.128 87.313-85.813 48.364 12.059 216.438 68 216.438 68l-228.313 225z" />
<glyph unicode="&#xe068;" d="M240.063 1024c-24.369 0-44.125-19.756-44.125-44.125v-169.688c0-24.369 19.756-44.125 44.125-44.125s44.125 19.756 44.125 44.125v125.563h361.813l101.313-101.375v-24.188c0-24.369 19.756-44.125 44.125-44.125 24.433 0 44.186 19.76 44.25 44v42.531c0 11.735-4.665 22.946-12.938 31.219l-127.188 127.219c-8.273 8.273-19.483 12.969-31.219 12.969h-424.281zM614.063 903.719c-2.929-0.054-5.893-0.65-8.719-1.813-8.978-3.719-14.813-12.504-14.813-22.188v-67.906c0-13.339 10.79-24.063 24-24.063h68.094c13.339 0 24.033 10.724 23.969 24.063 0 7.375-3.273 13.983-8.531 18.344l-66.563 66.406c-4.673 4.762-10.993 7.275-17.438 7.156zM110.594 725.406c-45.625-1.165-82.594-38.825-82.594-84.844v-254.5c0-46.621 38.16-84.844 84.781-84.844h38.031v-212.156c0-49.122 40.001-89.063 89.188-89.063h551.438c49.186 0 89.222 39.94 89.094 89.063v212.156h38.281c46.685 0 84.844 38.223 84.844 84.844v254.5c-0.064 46.685-38.222 84.844-84.844 84.844h-806.031c-0.728 0-1.463 0.019-2.188 0zM155.156 640.656c23.471 0 42.469-18.998 42.469-42.469s-18.998-42.531-42.469-42.531c-23.343 0-42.438 19.060-42.438 42.531s19.031 42.469 42.438 42.469zM240.063 473.406h551.438c24.946 0 45.031-20.087 45.031-44.969v-83.031c-0.042 0-0.083 0-0.125 0-24.369 0-44.125-19.756-44.125-44.125l-0.906-212.969-552.344 0.75v212.219c0 24.326-19.658 44.057-43.969 44.125v83.031c0 24.882 20.182 44.969 45 44.969zM324.906 387.719c-24.369 0-44.125-19.756-44.125-44.125s19.756-44.125 44.125-44.125h381.75c24.369 0 44.125 19.756 44.125 44.125s-19.756 44.125-44.125 44.125h-381.75zM324.906 271.719c-24.369 0-44.125-19.756-44.125-44.125s19.756-44.125 44.125-44.125h381.75c24.369 0 44.125 19.756 44.125 44.125s-19.756 44.125-44.125 44.125h-381.75z" />
<glyph unicode="&#xe069;" d="M771.656 994.563c-12.682 0.321-27.271-11.725-35.219-30.031l-469.406-474.313c-42.094 44.951-108.732 62.157-169.469 38.188-79.25-31.31-118.029-120.936-86.719-200.25 31.31-79.249 121.034-118.091 200.281-86.781 36.507 14.486 64.44 41.3 80.875 73.844l100.031-253c10.004-25.399 40.455-37.038 68.063-26.125 27.543 10.913 41.787 40.291 31.719 65.625l-107.906 272.875 601.125-24.031c13.577-5.911 29.488 1.090 38.969 22.656l-118.406 303.031-127.125 316.813c-2.162 0.944-4.464 1.441-6.813 1.5z" />
<glyph unicode="&#xe070;" d="M511.969 818.75c-115.598 0-239.906-49.364-359.281-142.688-89.099-69.577-144.010-138.434-146.25-141.25-8.577-10.817-8.577-26.058 0-36.875 2.24-2.88 57.215-71.801 146.25-141.25 119.439-93.324 243.683-142.688 359.281-142.688 115.662 0 239.969 49.3 359.344 142.688 89.099 69.449 144.010 138.37 146.25 141.25 8.577 10.817 8.577 26.058 0 36.875-2.24 2.816-57.215 71.673-146.25 141.25-119.439 93.324-243.745 142.688-359.344 142.688zM511.969 713.781c108.878 0 197.531-88.591 197.531-197.469 0-108.814-88.654-197.469-197.531-197.469-108.814 0-197.469 88.655-197.469 197.469 0 108.878 88.655 197.469 197.469 197.469zM511.969 654.438c-76.042 0-138.063-61.955-138.063-138.125s61.957-138.063 138.063-138.063c76.106 0 138.125 61.893 138.125 138.063s-62.019 138.125-138.125 138.125zM511.969 629.938c62.664 0 113.625-50.961 113.625-113.625 0-62.6-50.961-113.563-113.625-113.563-62.6 0-113.563 50.963-113.563 113.563 0 16.386 13.333 29.688 29.719 29.688s29.688-13.301 29.688-29.688c0-29.828 24.329-54.156 54.156-54.156 29.892 0 54.219 24.329 54.219 54.156 0 29.892-24.327 54.219-54.219 54.219-16.386 0-29.688 13.239-29.688 29.625s13.301 29.781 29.688 29.781z" />
<glyph unicode="&#xe071;" d="M512 850.531c-22.266 0-44.56-15.154-61.5-45.5l-85.906-154.625h294.875l-86.031 154.625c-16.909 30.346-39.171 45.5-61.438 45.5zM335.563 598.25l-85.844-154.438h524.625l-85.969 154.438h-352.813zM220.656 391.656l-42.094-75.688c-7.069-12.737-11.769-25.005-14.125-36.469h-122.656c-23.054 0-41.781-18.665-41.781-41.719 0-23.118 18.727-41.781 41.781-41.781h940.5c23.054 0 41.719 18.663 41.719 41.781-0.064 23.054-18.727 41.719-41.781 41.719h-122.594c-2.484 11.527-7.054 23.732-14.25 36.469l-41.969 75.688h-582.75z" />
<glyph unicode="&#xe072;" d="M187.813 1024c-25.004 0-47.813-20.34-47.813-45.344l2.469-821.563c0-5.455 4.561-9.729 11.25-12.781 4.416-3.767 9.864-6.094 15.969-6.094h249.063c14.093 0 25.469 12.010 25.469 26.688v51.625c0 14.743-11.376 26.688-25.469 26.688h-185.563v410h185.563c14.093 0 25.469 12.010 25.469 26.688v51.656c0 14.743-11.503 26.688-25.531 26.688h-185.688v220.406c0 25.004-20.183 45.344-45.188 45.344zM547.094 975.219c-30.265 0-54.813-24.615-54.813-54.75v-346.156c0-30.2 24.548-54.75 54.813-54.75h268.719c30.2 0 54.75 24.485 54.75 54.75v246.219c0 25.069-13.837 57.013-32.281 74.094l-54.719 51c-17.925 16.821-50.292 29.594-74.906 29.594h-161.563zM547 937.219h161.594c14.873 0 38.313-9.275 49.094-19.406l54.625-50.969c10.716-9.937 20.344-31.957 20.344-46.375v-246.219h0.063c0-9.417-7.682-16.938-16.969-16.938h-268.75c-9.287 0-16.875 7.52-16.875 16.938v346.156c0 9.222 7.588 16.813 16.875 16.813zM731.344 916.281c-6.847 0.192-11.375-6.295-11.375-18.594v-32.469c0-19.808 16.163-35.875 35.906-35.875h35.531c19.744 0 24.281 11.236 10.188 24.875l-55.906 54.313c-5.285 5.114-10.236 7.635-14.344 7.75zM587.75 779.156c-9.027 0-16.438-7.28-16.438-16.438s7.41-16.438 16.438-16.438h185.656c9.157 0 16.563 7.28 16.563 16.438s-7.405 16.438-16.563 16.438h-185.656zM587.75 705c-9.027 0-16.438-7.405-16.438-16.563 0-8.963 7.41-16.375 16.438-16.375h185.656c9.157 0 16.563 7.412 16.563 16.375 0 9.092-7.405 16.563-16.563 16.563h-185.656zM587.75 630.688c-9.027 0-16.438-7.28-16.438-16.438s7.41-16.438 16.438-16.438h185.656c9.157 0 16.563 7.28 16.563 16.438s-7.405 16.438-16.563 16.438h-185.656zM547.156 455.656c-30.265 0-54.813-24.485-54.813-54.75v-346.156c0-30.265 24.548-54.75 54.813-54.75h268.719c30.2 0 54.75 24.485 54.75 54.75v246.281c0 25.134-13.808 56.951-32.188 74.031l-54.813 51.125c-17.925 16.691-50.292 29.469-74.906 29.469h-161.563zM547 417.719h161.594c14.873 0 38.313-9.215 49.094-19.281l54.625-50.969c10.716-9.872 20.344-31.957 20.344-46.375v-246.344h0.063c0-9.417-7.682-16.813-16.969-16.813h-268.75c-9.287 0-16.875 7.395-16.875 16.813v346.156c0 9.287 7.588 16.813 16.875 16.813zM731.344 396.875c-6.847 0.196-11.375-6.348-11.375-18.688v-32.469c0-19.679 16.163-35.875 35.906-35.875h35.531c19.744 0 24.281 11.328 10.188 25.031l-55.906 54.156c-5.285 5.188-10.236 7.726-14.344 7.844zM587.75 259.781c-9.027 0-16.438-7.405-16.438-16.563 0-8.963 7.41-16.375 16.438-16.375h185.656c9.157 0 16.563 7.412 16.563 16.375 0 9.092-7.405 16.563-16.563 16.563h-185.656zM587.75 185.625c-9.027 0-16.438-7.405-16.438-16.563s7.41-16.438 16.438-16.438h185.656c9.157 0 16.563 7.28 16.563 16.438s-7.405 16.563-16.563 16.563h-185.656zM587.75 111.313c-9.027 0-16.438-7.412-16.438-16.375 0-9.157 7.41-16.563 16.438-16.563h185.656c9.157 0 16.563 7.405 16.563 16.563 0 8.963-7.405 16.375-16.563 16.375h-185.656z" />
<glyph unicode="&#xe073;" d="M241.625 963.313c-10.852-2.761-16.964-8.842-18.313-18.281v-864.688c2.697-10.788 8.873-16.87 18.313-18.219h190.781c9.568 2.697 14.964 8.715 16.313 18.219v864.688c-2.761 10.788-8.158 16.869-16.313 18.281h-190.781zM332.75 873.938c9.439-2.697 14.839-8.097 16.188-16.188v-481.125c-2.761-9.439-8.097-14.839-16.188-16.188-10.916 1.284-16.964 6.748-18.313 16.188v481.125c2.633 9.439 8.809 14.839 18.313 16.188zM767.281 847.594c-2.023 0-4.070-0.683-6.125-2.031l-105.563-36.531c-9.439-4.11-12.822-11.554-10.125-22.406l44.688-136h-188.719c-10.852-1.348-17.027-6.748-18.375-16.188v-554.156c2.697-10.788 8.872-16.87 18.375-18.219h206.938c10.788 2.697 16.964 8.715 18.313 18.219v464.844l158.344-472.938c4.045-5.394 6.745-8.777 8.094-10.125 4.174-1.413 6.808-2.063 8.156-2.063h6.031l105.688 38.594c9.375 4.045 12.921 10.842 10.031 20.281l-239.469 716.469c-2.825 4.11-6.269 7.522-10.25 10.219-1.991 1.348-4.009 2.031-6.031 2.031zM16.25 841.469c-9.503-2.697-14.902-8.811-16.25-18.25v-742.938c2.697-10.788 8.224-16.87 16.25-18.219h156.406c9.311 2.697 14.777 8.715 16.125 18.219v742.938c-2.633 10.852-8.034 16.902-16.125 18.25h-156.406zM93.031 723.75c9.568-2.697 14.962-8.159 16.375-16.25v-509.5c-1.477-10.852-6.872-16.964-16.375-18.313-10.788 2.761-16.745 8.873-18.094 18.313v509.5c2.697 9.439 8.719 14.837 18.094 16.25zM602.625 575.563c9.503-2.697 14.9-8.811 16.313-18.25v-330.875c-2.825-9.503-8.158-14.902-16.313-16.25-10.788 1.413-16.902 6.811-18.25 16.25v330.875c2.697 10.788 8.875 16.902 18.25 18.25zM286.25 334.063h89.313c10.98-1.413 16.964-6.811 18.313-16.25v-180.625c-2.697-9.503-8.873-14.902-18.313-16.25h-89.313c-9.503 2.697-14.839 8.159-16.188 16.25v180.625c2.697 9.439 8.161 14.837 16.188 16.25zM556.25 155.406h91.313c9.503-2.697 14.839-8.78 16.188-18.219-1.348-9.503-6.748-14.966-16.188-16.25h-91.313c-9.503 2.697-14.872 8.159-16.156 16.25 2.633 10.788 8.001 16.87 16.156 18.219z" />
<glyph unicode="&#xe074;" d="M84.063 1024.375c-46.271 0-83.813-37.381-83.813-83.844v-290.688c0-46.207 37.541-83.813 83.813-83.813h290.688c46.271 0 83.844 37.606 83.844 83.813v290.688c0 46.463-37.572 83.844-83.844 83.844h-290.688zM804.219 1017.969c-6.638-0.121-13.602-1.664-20.906-4.656-6.784-3.136-12.724-7.167-17.844-12.031-10.624-11.264-15.938-23.772-15.938-37.531 0.64-14.4 5.231-26.219 14.063-35.563l87.125-83.406h-245.375c-9.344-0.704-17.857-4.073-25.281-10.281-10.048-10.624-14.969-23.823-14.969-39.375 0.576-16.255 5.497-29.36 14.969-39.344 6.208-7.488 14.593-11.219 25.281-11.219h245.375l-83.406-82.5c-9.408-10.048-14-21.568-14-34.688 0.64-15.040 5.89-27.814 15.938-38.438 16.896-16.832 35.909-20.86 57.156-12.156 5.632 1.856 10.916 5.289 15.844 10.281l167.75 167.813c17.856 17.855 19.456 56.452 0 75.844l-171.375 172.281c-10.248 10.206-21.733 15.199-34.406 14.969zM84.063 944.375h290.688c2.182 0 3.844-1.604 3.844-3.844v-290.688c0-2.048-1.807-3.844-3.844-3.844h-290.688c-2.036 0-3.813 1.796-3.813 3.844v290.688c0 2.176 1.573 3.844 3.813 3.844zM649.125 460.281c-46.207 0-83.906-37.416-83.906-83.75v-290.75c0-46.271 37.699-83.781 83.906-83.781h290.656c46.399 0 83.844 37.51 83.844 83.781v290.75c0 46.334-37.444 83.75-83.844 83.75h-290.656zM218.719 454c-6.78 0.021-13.821-1.477-21.125-4.469-5.632-1.856-10.916-5.29-15.844-10.281l-167.75-167.813c-17.856-17.855-19.456-56.452 0-75.844l171.375-172.281c15.616-15.552 34.065-19.016 55.313-10.313 6.784 3.136 12.724 7.231 17.844 12.031 10.624 11.264 15.938 23.74 15.938 37.5-0.64 14.4-5.231 26.25-14.063 35.594l-87.125 83.375h245.375c9.344 0.704 17.857 4.105 25.281 10.313 10.048 10.624 14.969 23.823 14.969 39.375-0.576 16.255-5.497 29.36-14.969 39.344-6.208 7.488-14.593 11.219-25.281 11.219h-245.375l83.406 82.469c9.408 10.048 14 21.568 14 34.688-0.64 15.039-5.89 27.845-15.938 38.469-11.088 11.046-23.088 16.586-36.031 16.625zM649.125 380.281h290.656c2.182 0 3.844-1.574 3.844-3.75v-290.75c0-2.112-1.662-3.781-3.844-3.781h-290.656c-2.036 0-3.906 1.733-3.906 3.781v290.75c0 2.048 1.806 3.75 3.906 3.75z" />
<glyph unicode="&#xe075;" d="M320 1001.406c-7.377-0.184-14.836-1.455-22.188-3.937l-246.688-83.313c-39.326-13.242-60.482-55.716-47.125-95.156l83.313-246.656c13.185-39.211 55.883-60.367 95.094-47.125l246.719 83.281c39.269 13.242 60.362 55.946 47.063 95.156l-83.219 246.688c-10.806 32.045-41 51.859-72.969 51.062zM688.531 935.781c-41.389 0-75.156-33.475-75.156-75.094v-260.375c0-41.389 33.767-75.094 75.156-75.094h260.375c41.561 0 75.094 33.705 75.094 75.094v260.375c0 41.618-33.533 75.094-75.094 75.094h-260.375zM688.531 864.125h260.375c2.006 0 3.438-1.431 3.438-3.438v-260.375c0-1.892-1.546-3.438-3.438-3.438h-260.375c-1.834 0-3.5 1.603-3.5 3.438v260.375c0 1.892 1.551 3.438 3.5 3.438zM182.406 430.5c-41.446 0-75.094-33.528-75.094-75.031v-260.438c0-41.446 33.647-75.031 75.094-75.031h260.375c41.446 0 75.094 33.585 75.094 75.031v260.438c0 41.504-33.647 75.031-75.094 75.031h-260.375zM688.531 430.5c-41.389 0-75.156-33.528-75.156-75.031v-260.438c0-41.446 33.767-75.031 75.156-75.031h260.375c41.561 0 75.094 33.585 75.094 75.031v260.438c0 41.504-33.533 75.031-75.094 75.031h-260.375zM182.406 358.844h260.375c1.892 0 3.438-1.483 3.438-3.375v-260.438c0-1.834-1.546-3.375-3.438-3.375h-260.375c-1.834 0-3.438 1.541-3.438 3.375v260.438c0 1.834 1.546 3.375 3.438 3.375zM688.531 358.844h260.375c1.949 0 3.438-1.426 3.438-3.375v-260.438c0-1.892-1.488-3.375-3.438-3.375h-260.375c-1.834 0-3.5 1.541-3.5 3.375v260.438c0 1.834 1.608 3.375 3.5 3.375z" />
<glyph unicode="&#xe076;" d="M565.719 1024c-6.766 0.030-13.794-1.433-21.063-4.406-5.507-1.858-10.882-5.316-15.688-10.25l-167.063-167.125c-17.749-17.812-19.35-56.122 0-75.344l170.625-171.531c15.567-15.634 33.98-19.027 55.125-10.313 6.792 3.14 12.622 7.127 17.813 12.125 10.444 11.277 15.688 23.696 15.688 37.344-0.577 14.289-5.189 26.211-14.031 35.438l-86.688 82.969h244.375c9.355 0.577 17.694 3.973 25.063 10.188 10.060 10.572 15.031 23.586 15.031 39.156-0.577 16.147-5.548 29.097-15.031 39.156-6.151 7.369-14.49 11-25.063 11h-244.375l83.031 82.281c9.355 9.932 13.969 21.523 13.969 34.594-0.641 14.801-5.883 27.618-15.75 38.062-11.059 11.059-23.052 16.599-35.969 16.656zM223.656 802.188c-16.147-0.577-29.162-5.52-39.094-14.875-7.497-6.215-11.219-14.614-11.219-25.25v-244.313l-82.125 82.969c-9.996 9.355-21.337 13.844-34.344 13.844-14.993-0.384-27.74-5.818-38.313-15.75-16.787-16.723-20.775-35.765-12.125-56.781 1.858-5.639 5.188-10.813 10.25-15.875l167.031-166.906c17.749-17.812 56.214-19.414 75.5 0l171.656 170.563c15.442 15.634 18.902 34.076 10.188 55.156-3.076 6.728-7.252 12.818-12.25 17.688-11.213 10.508-23.697 15.969-37.281 15.969-14.417-0.705-26.211-5.474-35.438-14.188l-82.969-86.688v244.313c-0.833 9.355-4.129 17.881-10.344 25.25-10.508 9.996-23.619 14.875-39.125 14.875zM801.313 672.156c-14.273 0.192-28.762-4.262-38.438-13.938l-171.438-170.625c-15.442-15.57-19.091-33.917-10.313-55.125 3.204-6.856 7.094-12.755 12.156-17.625 11.213-10.636 23.727-15.813 37.375-15.813 14.353 0.577 25.989 5.126 35.344 13.969l83.125 86.688v-244.313c0.705-9.291 3.972-17.819 10.188-25.188 10.508-9.932 23.619-14.906 39.125-14.906 16.147 0.449 29.286 5.551 39.281 14.906 7.433 6.215 11.031 14.487 11.031 25.188v244.313l82.063-82.969c9.932-9.291 21.558-13.906 34.563-13.906 14.993 0.513 27.676 5.817 38.313 15.813 16.659 16.723 20.745 35.634 12.031 56.906-1.858 5.639-5.252 10.88-10.25 15.75l-166.906 166.938c-8.906 8.906-22.977 13.745-37.25 13.938zM455.344 443.75c-6.622-0.119-13.575-1.692-20.844-4.688-6.792-3.14-12.594-7.221-17.656-12.219-10.572-11.149-15.844-23.663-15.844-37.375 0.641-14.224 5.253-25.989 14.031-35.344l86.75-83.063h-244.375c-9.355-0.577-17.853-3.972-25.094-10.188-9.996-10.444-15.063-23.621-15.063-39.063 0.577-16.211 5.644-29.223 15.063-39.219 6.087-7.432 14.393-11.094 25.094-11.094h244.375l-83.031-82.125c-9.291-9.996-13.969-21.491-13.969-34.563 0.513-14.993 5.911-27.806 15.906-38.25 16.723-16.787 35.607-20.808 56.688-12.094 5.639 1.858 11.035 5.382 15.969 10.187l166.906 167.094c17.749 17.812 19.351 56.15 0 75.5l-170.625 171.625c-10.176 10.092-21.639 15.102-34.281 14.875z" />
<glyph unicode="&#xe077;" d="M44.875 1020.063c-24.802 0-44.875-20.105-44.875-44.906v-845.344c0-71.599 58.214-129.813 129.75-129.813h849.313c24.802 0 44.938 20.072 44.938 44.938 0 24.801-20.136 44.906-44.938 44.906h-849.313c-22.060 0-39.906 17.909-39.906 39.969v845.344c0 24.801-20.231 44.906-44.969 44.906zM533 940.594c-36.915 0-66.875-29.96-66.875-66.875v-590.625c0-36.979 29.96-66.906 66.875-66.906s66.875 29.863 66.875 66.906v590.625c0 36.915-29.96 66.875-66.875 66.875zM789.188 813.219c-36.915 0-66.875-29.832-66.875-66.875v-463.25c0-36.979 29.96-66.906 66.875-66.906s66.875 29.863 66.875 66.906v463.25c0 36.979-29.96 66.875-66.875 66.875zM278.094 573.5c-36.915 0-66.875-29.768-66.875-66.875v-223.531c0-36.979 29.96-66.906 66.875-66.906s66.906 29.863 66.906 66.906v223.531c0 37.107-29.991 66.875-66.906 66.875z" />
<glyph unicode="&#xe078;" d="M323.125 1021.844c-42.909 0-77.875-34.839-77.875-77.812v-687.188c0-42.973 34.966-77.781 77.875-77.781 25.899 0 47.71 13.436 61.906 32.813 9.336 12.854 16.063 27.895 16.063 44.969v687.188c-0.064 42.973-34.996 77.812-77.969 77.812zM568.438 873.75c-42.973 0-77.813-34.871-77.813-77.844v-244.344c43.485 39.136 96.663 67.659 155.688 81.344v163c0 42.973-34.966 77.844-77.875 77.844zM77.875 594.875c-43.101 0-77.875-34.805-77.875-77.906v-260.125c0-42.973 34.774-77.781 77.875-77.781 42.973 0 77.719 34.808 77.719 77.781v260.125c-0.064 43.101-34.81 77.906-77.719 77.906zM727.344 589.75c-163.579 0-296.656-131.863-296.656-293.844 0-162.108 133.077-293.906 296.656-293.906 163.515 0 296.656 131.798 296.656 293.906-0.064 162.044-133.205 293.844-296.656 293.844zM727.344 509.813c119.519 0 216.719-95.922 216.719-213.906s-97.2-213.969-216.719-213.969c-119.519 0-216.719 95.985-216.719 213.969s97.2 213.906 216.719 213.906zM725.938 453.594c-11.127-0.448-20.157-3.758-27-10.281-5.052-4.22-7.594-9.991-7.594-17.281v-167.969l-56.469 57.094c-6.842 6.459-14.702 9.594-23.719 9.594-10.232-0.383-19.056-4.032-26.219-10.875-11.639-11.511-14.386-24.546-8.375-39.063 1.215-3.837 3.579-7.486 6.969-10.875l114.906-114.719c12.278-12.214 38.636-13.301 51.938 0l117.906 117.281c10.679 10.679 13.042 23.328 7.031 37.844-2.11 4.668-4.859 8.768-8.313 12.094-7.738 7.29-16.288 10.875-25.625 10.875-9.848-0.384-17.98-3.581-24.375-9.656l-57.094-59.594v167.969c-0.448 6.395-2.748 12.166-6.969 17.281-7.29 6.906-16.385 10.281-27 10.281z" />
</font>
</defs>
</svg>
